<?xml version="1.0" standalone="no"?>
<!DOCTYPE svg PUBLIC "-//W3C//DTD SVG 1.1//EN" "http://www.w3.org/Graphics/SVG/1.1/DTD/svg11.dtd" >
<svg xmlns="http://www.w3.org/2000/svg" xmlns:xlink="http://www.w3.org/1999/xlink" version="1.1">
<metadata>
Created by FontForge 20190801 at Thu Oct 25 03:36:22 2018
 By Unknown
COPYRIGHT c 2018 by Seoul Metropolitan Government. All rights reserved.Font designed by Type4Design CO., LTD.
</metadata>
<defs>
<font id="SeoulNamsanB" horiz-adv-x="950" >
  <font-face 
    font-family="SeoulNamsan B"
    font-weight="400"
    font-stretch="normal"
    units-per-em="1000"
    panose-1="2 2 5 3 2 1 1 2 1 1"
    ascent="858"
    descent="-142"
    x-height="530"
    cap-height="750"
    bbox="-38 -810 986 904"
    underline-thickness="25"
    underline-position="-154"
    unicode-range="U+0001-FFE6"
  />
<missing-glyph horiz-adv-x="1000" 
d="M100 -42v800h800v-800h-800zM150 8h700v700h-700v-700z" />
    <glyph glyph-name=".notdef" horiz-adv-x="1000" 
d="M100 -42v800h800v-800h-800zM150 8h700v700h-700v-700z" />
    <glyph glyph-name="glyph1" horiz-adv-x="0" 
 />
    <glyph glyph-name="glyph2" horiz-adv-x="1000" 
 />
    <glyph glyph-name="glyph3" horiz-adv-x="330" 
 />
    <glyph glyph-name="glyph3" horiz-adv-x="330" 
 />
    <glyph glyph-name="uni0001" horiz-adv-x="330" 
 />
    <glyph glyph-name="uni0002" horiz-adv-x="330" 
 />
    <glyph glyph-name="uni0003" horiz-adv-x="330" 
 />
    <glyph glyph-name="uni0004" horiz-adv-x="330" 
 />
    <glyph glyph-name="uni0005" horiz-adv-x="330" 
 />
    <glyph glyph-name="uni0006" horiz-adv-x="330" 
 />
    <glyph glyph-name="uni0007" horiz-adv-x="330" 
 />
    <glyph glyph-name="uni0008" horiz-adv-x="330" 
 />
    <glyph glyph-name="uni0009" unicode="&#x9;" horiz-adv-x="330" 
 />
    <glyph glyph-name="uni000A" unicode="&#xa;" horiz-adv-x="330" 
 />
    <glyph glyph-name="uni000B" horiz-adv-x="330" 
 />
    <glyph glyph-name="uni000C" horiz-adv-x="330" 
 />
    <glyph glyph-name="uni000D" unicode="&#xd;" horiz-adv-x="330" 
 />
    <glyph glyph-name="uni000E" horiz-adv-x="330" 
 />
    <glyph glyph-name="uni000F" horiz-adv-x="330" 
 />
    <glyph glyph-name="uni0010" horiz-adv-x="330" 
 />
    <glyph glyph-name="uni0011" horiz-adv-x="330" 
 />
    <glyph glyph-name="uni0012" horiz-adv-x="330" 
 />
    <glyph glyph-name="uni0013" horiz-adv-x="330" 
 />
    <glyph glyph-name="uni0014" horiz-adv-x="330" 
 />
    <glyph glyph-name="uni0015" horiz-adv-x="330" 
 />
    <glyph glyph-name="uni0016" horiz-adv-x="330" 
 />
    <glyph glyph-name="uni0017" horiz-adv-x="330" 
 />
    <glyph glyph-name="uni0018" horiz-adv-x="330" 
 />
    <glyph glyph-name="uni0019" horiz-adv-x="330" 
 />
    <glyph glyph-name="uni001A" horiz-adv-x="330" 
 />
    <glyph glyph-name="uni001B" horiz-adv-x="330" 
 />
    <glyph glyph-name="uni001C" horiz-adv-x="330" 
 />
    <glyph glyph-name="uni001D" horiz-adv-x="330" 
 />
    <glyph glyph-name="uni001E" horiz-adv-x="330" 
 />
    <glyph glyph-name="uni001F" horiz-adv-x="330" 
 />
    <glyph glyph-name="space" unicode=" " horiz-adv-x="330" 
 />
    <glyph glyph-name="exclam" unicode="!" horiz-adv-x="318" 
d="M206 773l-6 -561h-84l-5 561h95zM219 -32h-119v117h119v-117z" />
    <glyph glyph-name="quotedbl" unicode="&#x22;" horiz-adv-x="418" 
d="M337 813l-16 -233h-74l-14 233h104zM187 813l-15 -233h-74l-17 233h106z" />
    <glyph glyph-name="numbersign" unicode="#" horiz-adv-x="647" 
d="M599 482l-16 -69h-120l-25 -85h123l-17 -69h-121l-57 -220h-79l56 220h-102l-58 -220h-80l58 220h-117l16 69h116l23 85h-116l16 69h116l57 222h80l-58 -222h104l58 222h80l-59 -222h122zM382 413h-103l-23 -85h103z" />
    <glyph glyph-name="dollar" unicode="$" horiz-adv-x="548" 
d="M303 96q9 1 18 4q22 6 40 22q17 17 29 40.5t12 56.5q1 28 -10 50t-27 38q-17 18 -48 34l-14 6v-251zM235 372q-15 5 -35 13q-46 16 -75 36q-28 22 -47 57t-19 90q0 46 17.5 78.5t45.5 54.5q27 20 67 33q23 7 46 11v76h68v-76q33 -3 58 -12q35 -15 61 -35q27 -22 44 -50.5
t17 -62.5h-99q-1 41 -30 71q-19 19 -51 26v-259q15 -5 34 -12q48 -19 80 -41t55 -56.5t23 -87.5q0 -52 -19 -88t-47 -59q-31 -22 -73 -35q-26 -8 -53 -11v-86h-68v85q-84 6 -128 45q-53 45 -60 119h101q0 -46 32 -74q21 -20 55 -26v276zM235 683q-10 -2 -18 -4
q-20 -7 -35 -20q-14 -15 -23.5 -36t-9.5 -51q0 -32 8 -55t22 -37q12 -15 44 -28q6 -3 12 -5v236z" />
    <glyph glyph-name="percent" unicode="%" horiz-adv-x="865" 
d="M623 710l-299 -668h-84l299 668h84zM287 503q0 65 -24.5 103.5t-62.5 38.5q-37 0 -60 -38.5t-23 -103.5q0 -64 23 -102t60 -38q38 0 62.5 38t24.5 102zM374 503q0 -42 -13.5 -82t-35.5 -68q-24 -28 -57 -41.5t-68 -13.5q-33 0 -66.5 13.5t-56.5 41.5q-24 28 -36 68
t-12 82q0 43 12 83t36 68q23 28 56 42t67 14q35 0 68 -14t57 -42q22 -28 35.5 -68t13.5 -83zM748 247q1 65 -23.5 103.5t-62.5 38.5q-37 0 -60 -38.5t-23 -103.5q0 -64 23 -102t60 -38q38 0 62 38t24 102zM836 247q0 -42 -13.5 -82t-35.5 -68q-24 -28 -57 -41.5t-68 -13.5
q-34 0 -66.5 13.5t-56.5 41.5t-36 68t-12 82q0 43 12 83t36 68t56.5 42t66.5 14q35 0 68 -14t57 -42q22 -28 35.5 -68t13.5 -83z" />
    <glyph glyph-name="ampersand" unicode="&#x26;" horiz-adv-x="777" 
d="M451 628q0 29 -26 52t-64 23q-34 0 -56.5 -24.5t-22.5 -56.5t23 -66.5t39 -53.5q14 6 44 31q20 15 41.5 40.5t21.5 54.5zM553 129q-44 -39 -98 -71q-69 -42 -151 -42q-64 0 -124 28.5t-91 87.5q-25 52 -14.5 113.5t56.5 105.5q50 48 89.5 73t53.5 34q-42 47 -62.5 82
t-23.5 67t9 60.5t33 48.5q25 22 58.5 35t71.5 13q31 0 63 -8t58 -25q26 -18 42.5 -45.5t18.5 -63.5q0 -34 -25 -71.5t-64 -67.5q-29 -23 -58 -42l167 -193q40 42 84 93l65 -55q-49 -52 -97 -99l138 -159h-113zM325 398q-62 -39 -120 -91q-25 -25 -35.5 -66t8.5 -80
q12 -30 48.5 -52.5t77.5 -22.5q47 0 106 34q48 27 93 68z" />
    <glyph glyph-name="quotesingle" unicode="'" horiz-adv-x="328" 
d="M185 813l-15 -233h-74l-16 233h105z" />
    <glyph glyph-name="parenleft" unicode="(" horiz-adv-x="384" 
d="M233 261q0 -56 7 -108.5t19 -96.5q12 -43 30.5 -74t48.5 -45v-58q-75 20 -113.5 68t-56.5 109q-18 59 -23 122.5t-5 114.5v126q0 52 5 115.5t23 122.5q18 61 56.5 109t113.5 68v-58q-30 -14 -48.5 -45t-30.5 -74q-12 -44 -19 -96.5t-7 -109.5v-190z" />
    <glyph glyph-name="parenright" unicode=")" horiz-adv-x="384" 
d="M150 261v190q0 57 -7 109.5t-20 96.5q-12 43 -31 74t-47 45v58q74 -20 112 -68t57 -109q18 -59 23.5 -122.5t5.5 -115.5v-126q0 -51 -5.5 -114.5t-23.5 -122.5q-19 -61 -56.5 -109t-112.5 -68v58q28 14 47 45t31 74q13 44 20 96.5t7 108.5z" />
    <glyph glyph-name="asterisk" unicode="*" horiz-adv-x="406" 
d="M253 622l28 4h80v-64h-80l-30 4l19 -22l42 -65l-55 -35l-42 68l-13 29l-14 -29l-40 -68l-55 35l41 65l20 22l-34 -4h-75v64h75l32 -5l-18 25l-41 64l55 32l39 -64l13 -32l2 -2l1 2l13 32l40 64l56 -32l-42 -64z" />
    <glyph glyph-name="plus" unicode="+" horiz-adv-x="583" 
d="M535 351h-203v-201h-82v201h-202v75h202v202h82v-202h203v-75z" />
    <glyph glyph-name="comma" unicode="," horiz-adv-x="253" 
d="M191 113l-57 -234h-81l24 234h114z" />
    <glyph glyph-name="hyphen" unicode="-" horiz-adv-x="428" 
d="M380 347h-335v82h335v-82z" />
    <glyph glyph-name="period" unicode="." horiz-adv-x="253" 
d="M186 -32h-119v117h119v-117z" />
    <glyph glyph-name="slash" unicode="/" horiz-adv-x="388" 
d="M360 824l-248 -935h-86l247 935h87z" />
    <glyph glyph-name="zero" unicode="0" horiz-adv-x="552" 
d="M272 95q34 0 61.5 19t48.5 59q21 41 31 97t10 118q0 65 -11 122.5t-30 95.5q-20 41 -48 61t-62 20q-30 0 -58.5 -20t-49.5 -61q-18 -38 -27 -95.5t-9 -122.5q0 -62 8 -119.5t28 -96.5q22 -39 50 -58t58 -19zM272 19q-49 0 -96 24t-80 76q-33 51 -47 122t-14 147
q0 79 14.5 151t46.5 121q33 53 80 78t96 25q52 0 97.5 -26t79.5 -77q34 -49 50.5 -121t16.5 -151q0 -76 -16 -147t-51 -122q-33 -51 -79 -75.5t-98 -24.5z" />
    <glyph glyph-name="one" unicode="1" horiz-adv-x="552" 
d="M352 30h-92v620l-151 -77v88l161 90h82v-721z" />
    <glyph glyph-name="two" unicode="2" horiz-adv-x="552" 
d="M509 30h-459v76q68 52 181.5 166t150.5 195q20 42 20 85q0 18 -8 42.5t-21 41.5q-16 20 -41 35t-59 15q-68 0 -99 -40q-29 -36 -31 -99h-94q0 79 43 135q27 35 73 57t111 22q43 0 83 -14t71 -43q30 -27 47.5 -65t17.5 -87q0 -29 -8 -61t-20 -53q-40 -83 -126 -171.5
t-165 -159.5h333v-77z" />
    <glyph glyph-name="three" unicode="3" horiz-adv-x="552" 
d="M512 232q0 -34 -15.5 -76.5t-44.5 -71.5q-31 -32 -78 -48.5t-106 -16.5q-55 0 -99 13t-70 33q-29 22 -45.5 54t-18.5 74h104q0 -23 7 -39t21 -30q13 -13 39 -21.5t59 -8.5q70 0 112 39.5t42 100.5q0 41 -21 67.5t-48 41.5q-29 15 -65.5 22.5t-62.5 7.5v74q96 0 141 35
t45 86q0 60 -39.5 89.5t-93.5 29.5q-61 0 -95.5 -29.5t-39.5 -66.5h-91q0 26 16.5 59t40.5 56q28 26 69 41t95 15q43 0 87.5 -12t75.5 -39q32 -26 49 -61t17 -82q0 -25 -12.5 -58.5t-39.5 -57.5q-33 -29 -72 -42q41 -14 78 -45q26 -21 42.5 -54t16.5 -79z" />
    <glyph glyph-name="four" unicode="4" horiz-adv-x="552" 
d="M540 217h-121v-187h-90v187h-317v68l318 471h89v-463h121v-76zM329 293v327l-219 -327h219z" />
    <glyph glyph-name="five" unicode="5" horiz-adv-x="552" 
d="M514 247q0 -44 -18.5 -87t-49.5 -74q-31 -32 -81 -49t-109 -17q-57 0 -100 13.5t-70 38.5q-24 22 -35.5 51t-11.5 64h99q1 -19 7 -36t18 -29q13 -12 36 -19.5t58 -7.5q68 0 112.5 41t50.5 113q0 73 -42.5 112.5t-110.5 39.5q-37 0 -70 -16.5t-48 -43.5h-89l23 410h385
v-77h-297l-14 -230q51 32 122 33q113 1 174 -63t61 -167z" />
    <glyph glyph-name="six" unicode="6" horiz-adv-x="552" 
d="M169 449q54 31 109 31q59 0 99.5 -17t72.5 -48q31 -30 48 -74.5t17 -95.5q0 -46 -16.5 -89t-49.5 -76q-32 -33 -78.5 -47t-92.5 -14q-42 0 -87 14.5t-78 46.5q-44 49 -59 104q-6 22 -11.5 74.5t-5.5 141.5q0 67 8.5 128t34.5 113q27 53 76.5 87t123.5 34q54 0 95 -14.5
t69 -40.5q27 -24 41 -56t14 -64h-103q-1 15 -7 34t-18 32q-13 15 -36 24.5t-57 9.5q-42 0 -72.5 -25t-47.5 -63t-22.5 -78t-6.5 -76q-3 -70 1 -167q3 -51 16 -85.5t32 -55.5q20 -21 45 -32t56 -11q32 0 58.5 11t46.5 33q18 21 29 49.5t11 58.5q0 35 -11 63t-28 49
q-19 22 -46.5 34.5t-59.5 12.5q-52 -2 -110 -39v83z" />
    <glyph glyph-name="seven" unicode="7" horiz-adv-x="552" 
d="M507 675l-286 -645h-102l284 642h-363v79h467v-76z" />
    <glyph glyph-name="eight" unicode="8" horiz-adv-x="552" 
d="M412 562q0 58 -40.5 91.5t-101.5 33.5q-56 0 -93.5 -33.5t-37.5 -91.5q0 -52 36.5 -84.5t93.5 -32.5q63 0 103 32.5t40 84.5zM503 562q0 -37 -17 -73t-49 -62q-17 -14 -36 -22q23 -11 43 -26q33 -29 52 -67t19 -85q0 -41 -15.5 -81.5t-50.5 -69.5q-33 -31 -82 -44
t-97 -13q-44 0 -92.5 13t-82.5 44q-34 29 -48.5 69.5t-14.5 81.5q0 47 17.5 85t51.5 67q21 16 43 26q-19 9 -34 22q-33 26 -48 62t-15 73q0 43 16.5 79t45.5 62q32 29 75.5 44t85.5 15q48 0 91 -15t76 -44q29 -26 47.5 -62t18.5 -79zM270 95q69 0 111 37.5t42 94.5
q0 63 -42.5 102.5t-110.5 39.5q-62 0 -104 -39.5t-42 -102.5q0 -57 40.5 -94.5t105.5 -37.5z" />
    <glyph glyph-name="nine" unicode="9" horiz-adv-x="552" 
d="M380 324q-49 -23 -115 -23q-52 0 -93.5 14.5t-75.5 46.5q-31 30 -45.5 74.5t-14.5 91.5q0 50 16.5 93t45.5 75q32 32 74.5 49t93.5 17q53 0 94.5 -17t74.5 -49q28 -31 49 -76q13 -35 21.5 -94.5t8.5 -152.5q0 -63 -10 -124t-38 -113q-28 -53 -77.5 -85t-125.5 -32
q-49 0 -90 12.5t-69 38.5q-27 25 -41 57t-14 67h103q0 -19 6 -38t20 -32q14 -15 35 -22.5t53 -7.5q45 0 75.5 23t47.5 60q18 37 26 78t8 76q0 105 -11 197q-4 33 -15 63t-29 49q-19 21 -45 34t-58 13q-30 0 -56 -13t-45 -34q-18 -21 -28 -50t-10 -63q0 -31 10 -59t28 -49
q19 -22 44.5 -32.5t56.5 -10.5q58 -1 115 33v-85z" />
    <glyph glyph-name="colon" unicode=":" horiz-adv-x="409" 
d="M264 104h-119v117h119v-117zM264 499h-119v117h119v-117z" />
    <glyph glyph-name="semicolon" unicode=";" horiz-adv-x="409" 
d="M265 221l-58 -234h-80l23 234h115zM264 499h-119v117h119v-117z" />
    <glyph glyph-name="less" unicode="&#x3c;" horiz-adv-x="592" 
d="M95 330v73l434 258v-96l-337 -198l337 -199v-96z" />
    <glyph glyph-name="equal" unicode="=" horiz-adv-x="592" 
d="M534 458h-478v75h478v-75zM534 246h-478v75h478v-75z" />
    <glyph glyph-name="greater" unicode="&#x3e;" horiz-adv-x="592" 
d="M535 330l-434 -258v96l337 199l-337 198v96l434 -258v-73z" />
    <glyph glyph-name="question" unicode="?" horiz-adv-x="468" 
d="M434 587q0 -37 -18.5 -72t-41.5 -61q-23 -27 -46 -48.5t-34 -33.5q-13 -16 -24.5 -28.5t-19.5 -26.5q-8 -16 -12 -32t-4 -51v-54h-86v75q0 64 18 95t51 64q16 15 37.5 35t40.5 43q18 21 31.5 45.5t13.5 46.5q0 21 -11.5 40.5t-28.5 32.5q-18 14 -41.5 21.5t-50.5 7.5
q-23 0 -44.5 -3.5t-43.5 -9.5q-23 -6 -46.5 -15t-35.5 -17v91q15 6 37 11.5t42 9.5t44 7.5t49 3.5q37 0 77 -9.5t73 -31.5q32 -22 53 -56t21 -80zM252 -32h-119v117h119v-117z" />
    <glyph glyph-name="at" unicode="@" horiz-adv-x="1000" 
d="M923 379q-6 -101 -56.5 -182.5t-136.5 -125.5q-50 -28 -99 -31q-42 -3 -63.5 14.5t-24.5 44.5v5q-18 -16 -43 -30q-12 -8 -33.5 -15.5t-49.5 -7.5q-27 0 -54.5 9.5t-46.5 29.5q-22 23 -32 54.5t-9 74.5q2 37 18.5 91t59.5 112q36 49 86.5 85.5t106.5 36.5q52 0 79 -21.5
t37 -44.5l20 45h86q-19 -49 -65 -165t-73 -187q-17 -47 8 -55t76 19q23 14 47.5 37.5t39.5 48.5q19 31 33 79.5t15 79.5q6 91 -44.5 175.5t-134.5 115.5q-57 21 -113 21t-108 -17q-54 -17 -101 -50.5t-78 -75.5q-44 -56 -65 -111.5t-31 -103.5q-13 -51 -9.5 -106t23.5 -98
q35 -77 115 -126.5t203 -49.5q60 0 111.5 12t89.5 31q30 16 56 33.5t40 34.5l37 -46q-8 -12 -31.5 -31.5t-63.5 -42.5q-40 -24 -101 -41t-141 -17q-136 0 -241 56t-154 163q-24 53 -28 119.5t7 129.5q14 61 43.5 126.5t78.5 123.5q48 54 102 88t115 53q62 18 130.5 15.5
t136.5 -25.5q106 -36 170.5 -133.5t59.5 -223.5zM618 410q0 26 -15 47.5t-43 21.5q-30 0 -69.5 -33t-73.5 -87q-23 -37 -35.5 -73t-17.5 -72q-5 -33 2.5 -52t20.5 -29q10 -8 18.5 -10.5t20.5 -2.5q42 0 79.5 32.5t64.5 95.5q27 59 37.5 102t10.5 60z" />
    <glyph glyph-name="A" unicode="A" horiz-adv-x="650" 
d="M115 30h-98l256 721h99l258 -721h-99l-75 222h-265zM429 331l-104 309l-106 -309h210z" />
    <glyph glyph-name="B" unicode="B" horiz-adv-x="602" 
d="M556 235q0 -83 -47 -131t-113 -66q-23 -6 -53 -7t-49 -1h-220v721h209q112 0 177.5 -49t65.5 -143q0 -108 -132 -148q162 -39 162 -176zM166 106h114q16 0 42.5 1.5t39.5 5.5q52 14 76.5 46.5t24.5 75.5q0 46 -24.5 77t-76.5 46q-14 4 -37 8t-45 4h-114v-264zM433 559
q0 54 -33.5 81t-88.5 32q-12 1 -27 2t-27 1h-91v-229h92h26t27 1q55 6 88.5 35t33.5 77z" />
    <glyph glyph-name="C" unicode="C" horiz-adv-x="653" 
d="M615 547h-98q0 40 -14 65t-35 41q-20 17 -47.5 25t-55.5 10q-47 0 -88 -17.5t-74 -55.5q-33 -36 -50.5 -95.5t-17.5 -118.5q0 -37 9.5 -90.5t37.5 -103.5q29 -48 78.5 -80.5t128.5 -32.5q59 0 109.5 18t89.5 43v-92q-13 -6 -30 -14t-42 -15q-66 -16 -148 -16
q-86 0 -147.5 32.5t-104.5 88.5q-44 56 -60.5 124t-16.5 138q0 72 18.5 137t60.5 115q41 49 102.5 80t143.5 31q51 0 95.5 -15.5t79.5 -42.5q34 -28 55 -67t21 -92z" />
    <glyph glyph-name="D" unicode="D" horiz-adv-x="659" 
d="M166 673v-565h78q23 0 56.5 2t52.5 8q27 7 55.5 25t53.5 53q23 33 40 80t17 113q0 69 -17 115.5t-40 79.5q-25 35 -53.5 53t-55.5 25q-19 6 -52.5 8.5t-56.5 2.5h-78zM74 751h168q33 0 71.5 -3.5t66.5 -9.5q47 -10 87 -39.5t74 -70.5q31 -41 51 -100.5t20 -138.5
q0 -75 -20 -135.5t-51 -101.5q-34 -41 -74 -70.5t-87 -39.5q-28 -6 -66.5 -9t-71.5 -3h-168v721z" />
    <glyph glyph-name="E" unicode="E" horiz-adv-x="547" 
d="M494 30h-420v721h410v-78h-317v-227h304v-78h-304v-260h327v-78z" />
    <glyph glyph-name="F" unicode="F" horiz-adv-x="521" 
d="M484 673h-317v-227h306v-78h-306v-338h-93v721h410v-78z" />
    <glyph glyph-name="G" unicode="G" horiz-adv-x="682" 
d="M615 547h-98q0 40 -14 65t-35 41q-20 17 -47.5 25t-55.5 10q-47 0 -88.5 -17.5t-73.5 -55.5q-33 -36 -50.5 -95t-17.5 -118q0 -37 10 -90t37 -103q27 -47 77.5 -80.5t129.5 -33.5q43 0 82 9t45 12v223h-175v79h267v-347q-56 -28 -110.5 -40t-129.5 -12q-86 0 -148 33.5
t-104 88.5q-43 56 -60 123.5t-17 137.5q0 72 18.5 136.5t60.5 114.5q41 49 102.5 80t143.5 31q51 0 95.5 -15.5t79.5 -42.5q34 -28 55 -67t21 -92z" />
    <glyph glyph-name="H" unicode="H" horiz-adv-x="660" 
d="M584 30h-93v336h-324v-336h-93v721h93v-307h324v307h93v-721z" />
    <glyph glyph-name="I" unicode="I" horiz-adv-x="252" 
d="M172 30h-93v721h93v-721z" />
    <glyph glyph-name="J" unicode="J" horiz-adv-x="390" 
d="M315 191q0 -28 -10.5 -60t-32.5 -55q-24 -26 -64.5 -41.5t-104.5 -15.5q-29 0 -51 2.5t-44 10.5v85q22 -10 49.5 -15.5t52.5 -5.5h13.5t15.5 1q12 2 26 7.5t26 17.5q13 12 22 31t9 49v549h93v-560z" />
    <glyph glyph-name="K" unicode="K" horiz-adv-x="592" 
d="M588 30h-118l-305 330v-330h-91v721h91v-302l285 302h111l-317 -339z" />
    <glyph glyph-name="L" unicode="L" horiz-adv-x="513" 
d="M495 30h-421v721h93v-643h328v-78z" />
    <glyph glyph-name="M" unicode="M" horiz-adv-x="834" 
d="M758 30h-87v586l-216 -586h-81l-213 586v-586h-87v721h123l220 -592l215 592h126v-721z" />
    <glyph glyph-name="N" unicode="N" horiz-adv-x="660" 
d="M584 30h-107l-314 591v-591h-89v721h105l316 -593v593h89v-721z" />
    <glyph glyph-name="O" unicode="O" horiz-adv-x="743" 
d="M604 390q0 62 -18 119.5t-49 97.5t-75.5 61.5t-92.5 21.5q-47 0 -91.5 -21.5t-76.5 -61.5q-31 -40 -47.5 -97.5t-16.5 -119.5q0 -61 16.5 -117.5t47.5 -97.5q32 -40 76 -61t92 -21t92.5 21t75.5 61q31 41 49 97.5t18 117.5zM697 390q0 -76 -23.5 -146t-68.5 -122
q-44 -51 -107 -77t-129 -26t-129 26t-107 77q-46 52 -68 122t-22 146q0 78 22 148t68 122q44 51 107 77.5t129 26.5t129 -26.5t107 -77.5q45 -52 68.5 -122t23.5 -148z" />
    <glyph glyph-name="P" unicode="P" horiz-adv-x="583" 
d="M548 537q0 -55 -25 -98.5t-63 -68.5q-37 -26 -84.5 -36t-99.5 -10h-66v81h64q36 0 67.5 6t54.5 22q25 15 42 42.5t17 61.5q0 43 -17.5 67.5t-42.5 38.5q-25 15 -56 23t-63 8h-109v-644h-93v721h202q52 0 98 -11t85 -35t64 -66t25 -102z" />
    <glyph glyph-name="Q" unicode="Q" horiz-adv-x="764" 
d="M575 92h40q75 0 132 11v-73h-293q-42 -11 -85 -11q-66 0 -129 26t-107 77q-46 52 -68 122t-22 146q0 78 22 148t68 122q44 51 107 77.5t129 26.5t129 -26.5t107 -77.5q45 -52 68.5 -122t23.5 -148q0 -76 -23.5 -146t-68.5 -122q-14 -16 -30 -30zM604 390q0 62 -18 119.5
t-49 97.5t-75.5 61.5t-92.5 21.5q-47 0 -91.5 -21.5t-76.5 -61.5q-31 -40 -47.5 -97.5t-16.5 -119.5q0 -61 16.5 -117.5t47.5 -97.5q32 -40 76 -61t92 -21t92.5 21t75.5 61q31 41 49 97.5t18 117.5z" />
    <glyph glyph-name="R" unicode="R" horiz-adv-x="594" 
d="M548 543q0 -49 -25 -89t-63 -62q-21 -12 -61 -24q75 -40 105 -115q39 -97 62 -223h-98q-29 176 -75 236q-52 68 -118 68h-71v81h70q36 0 67 7t55 21q25 14 42 40.5t17 59.5q0 37 -17.5 62t-42.5 39t-56 22t-63 8h-109v-644h-93v721h202q52 0 99 -11t84 -35
q38 -25 63.5 -63.5t25.5 -98.5z" />
    <glyph glyph-name="S" unicode="S" horiz-adv-x="532" 
d="M497 225q0 -105 -74 -155.5t-198 -50.5q-47 0 -96 9.5t-83 19.5v95q29 -14 74 -27q25 -7 55.5 -13.5t58.5 -6.5q32 0 61 6.5t51 19.5q20 13 38.5 35.5t18.5 55.5t-16 55.5t-36 36.5q-43 33 -88 56q-33 16 -72.5 35.5t-73.5 44.5q-36 27 -57 60t-21 75q0 98 65.5 143
t167.5 45q26 0 54.5 -4t50.5 -9q44 -9 74 -20v-86q-21 13 -77 29t-111 16t-93 -27.5t-38 -79.5q0 -22 11.5 -38t26.5 -31q17 -14 39 -28t43 -24q78 -37 118.5 -59t65.5 -46q24 -21 41.5 -52.5t19.5 -79.5z" />
    <glyph glyph-name="T" unicode="T" horiz-adv-x="603" 
d="M576 673h-228v-643h-93v643h-228v78h549v-78z" />
    <glyph glyph-name="U" unicode="U" horiz-adv-x="673" 
d="M335 97q46 -3 80.5 15.5t52.5 46.5q19 32 28 68.5t9 76.5v447h92v-451q0 -44 -9.5 -94.5t-38.5 -90.5q-29 -43 -81 -69.5t-133 -26.5q-80 0 -132.5 26.5t-80.5 68.5q-30 41 -39 91.5t-9 94.5v451h93v-447q0 -40 8 -76.5t26 -68.5q18 -27 52 -44.5t82 -17.5z" />
    <glyph glyph-name="V" unicode="V" horiz-adv-x="644" 
d="M623 751l-253 -721h-100l-251 721h93l210 -609l205 609h96z" />
    <glyph glyph-name="W" unicode="W" horiz-adv-x="874" 
d="M847 751l-145 -721h-104l-162 589l-162 -589h-105l-143 721h87l113 -591l163 591h93l164 -591l113 591h88z" />
    <glyph glyph-name="X" unicode="X" horiz-adv-x="616" 
d="M21 30l234 377l-215 344h103l164 -261l162 261h103l-214 -344l237 -377h-103l-185 295l-183 -295h-103z" />
    <glyph glyph-name="Y" unicode="Y" horiz-adv-x="604" 
d="M303 444l181 307h102l-237 -393v-328h-93v328l-239 393h102z" />
    <glyph glyph-name="Z" unicode="Z" horiz-adv-x="570" 
d="M547 30h-512v75l381 568h-364v78h471v-77l-383 -566h407v-78z" />
    <glyph glyph-name="bracketleft" unicode="[" horiz-adv-x="359" 
d="M320 -111h-198v935h198v-70h-110v-795h110v-70z" />
    <glyph glyph-name="backslash" unicode="\" horiz-adv-x="388" 
d="M27 824h88l246 -935h-85z" />
    <glyph glyph-name="bracketright" unicode="]" horiz-adv-x="359" 
d="M238 -111h-200v70h110v795h-110v70h200v-935z" />
    <glyph glyph-name="asciicircum" unicode="^" horiz-adv-x="477" 
d="M198 820h83l152 -240h-91l-102 164l-107 -164h-89z" />
    <glyph glyph-name="underscore" unicode="_" horiz-adv-x="508" 
d="M510 -87h-511v62h511v-62z" />
    <glyph glyph-name="grave" unicode="`" horiz-adv-x="309" 
d="M224 575h-77l-94 180h105z" />
    <glyph glyph-name="a" unicode="a" horiz-adv-x="538" 
d="M469 30h-91v57q-20 -19 -59 -39q-28 -15 -60.5 -22t-77.5 -7q-20 0 -47.5 9.5t-48.5 25.5q-22 18 -33 43t-11 56q0 57 34 97.5t84 56.5q30 10 67 15t64 5h88v41q0 11 -4.5 29.5t-15.5 34.5q-12 16 -36.5 27.5t-59.5 11.5q-44 0 -75 -20.5t-31 -59.5h-102q0 32 12 57.5
t39 46.5q26 20 67.5 33.5t89.5 13.5q101 0 154 -49.5t53 -120.5v-342zM378 219v42q-23 0 -55 -0.5t-78 -7.5q-43 -6 -75 -27q-37 -25 -37 -63q0 -39 24 -56t62 -17q14 0 39.5 6t46.5 16q40 23 62 58q11 18 11 49z" />
    <glyph glyph-name="b" unicode="b" horiz-adv-x="570" 
d="M199 516q50 26 104 26q52 0 97.5 -20.5t73.5 -56.5q27 -36 40.5 -83t13.5 -97q0 -64 -16.5 -114.5t-43.5 -83.5q-28 -34 -72.5 -51t-98.5 -17t-97 17t-71 51q-29 33 -44.5 83.5t-15.5 114.5v466h89v-470q0 -40 10.5 -77t28.5 -63q18 -25 45 -38t53 -13q29 0 56 13t45 39
q19 26 29.5 62.5t10.5 75.5t-10.5 76t-29.5 63q-18 25 -44.5 38t-56.5 13q-38 0 -96 -31v77z" />
    <glyph glyph-name="c" unicode="c" horiz-adv-x="538" 
d="M491 366h-96q0 42 -27 73.5t-85 31.5q-63 0 -105 -47.5t-42 -133.5q0 -21 3.5 -43.5t12.5 -44.5q9 -26 28.5 -50t54.5 -43q12 -6 37.5 -12t57.5 -6q25 0 63.5 6.5t81.5 31.5v-73q-48 -25 -98 -33t-102 -3q-44 4 -87.5 23t-70.5 46q-33 33 -54.5 83.5t-21.5 118.5
q0 55 15 100t48 79q30 33 76.5 52.5t104.5 19.5q44 0 79.5 -12t64.5 -33q27 -22 44.5 -53.5t17.5 -77.5z" />
    <glyph glyph-name="d" unicode="d" horiz-adv-x="570" 
d="M369 441q-54 29 -98 29q-27 0 -53.5 -14t-44.5 -39q-18 -26 -29 -62t-11 -75t11 -75t29 -63q17 -25 44 -38.5t54 -13.5t52.5 14.5t44.5 39.5q18 25 30.5 61t12.5 76v470h88v-721h-88v57q-64 -67 -152 -68q-44 0 -86 17.5t-70 51.5q-30 33 -46 83t-16 114q0 50 13.5 96
t41.5 82t72 57.5t96 21.5q57 0 105 -27v-74z" />
    <glyph glyph-name="e" unicode="e" horiz-adv-x="538" 
d="M138 322h261q0 63 -23 103q-13 21 -36.5 33.5t-56.5 12.5q-63 0 -105 -47q-34 -39 -40 -102zM139 251q0 -2 1 -4q3 -23 12 -45q10 -27 29 -50.5t54 -42.5q12 -6 37.5 -12t57.5 -6q25 0 64 6.5t81 31.5v-73q-48 -25 -98 -33t-102 -3q-46 4 -88 22.5t-70 46.5
q-33 33 -54.5 83.5t-21.5 118.5q0 55 15 100t48 79q30 33 75 52.5t104 19.5q50 0 92 -17t70 -50q46 -55 46 -169v-55h-352z" />
    <glyph glyph-name="f" unicode="f" horiz-adv-x="398" 
d="M396 674q-25 9 -48 13t-50 4q-30 0 -46 -7.5t-28 -25.5q-8 -15 -11 -32t-3 -41v-55h149v-71h-149v-429h-93v429h-91v71h91v36q0 34 3.5 67.5t22.5 63.5q18 28 53 46t98 19q30 0 55 -4t47 -8v-76z" />
    <glyph glyph-name="g" unicode="g" horiz-adv-x="570" 
d="M499 92q3 -124 -66 -179q-70 -56 -190 -56q-37 0 -86 6.5t-77 19.5v91q36 -22 84 -31t88 -9q74 0 114 33t44 83q1 8 1 15v224q0 40 -11.5 70.5t-30.5 56.5q-18 24 -45 39t-55 15q-26 0 -52.5 -14t-44.5 -39q-20 -27 -30 -57.5t-10 -69.5t10.5 -70t29.5 -57
q18 -26 44.5 -39.5t52.5 -13.5q52 0 100 36v-74q-51 -33 -111 -33q-44 0 -86 17.5t-71 51.5q-29 33 -45.5 78t-16.5 109q0 50 14 91t41 77q28 36 72.5 57.5t96.5 21.5q97 0 148 -70v58h88v-438z" />
    <glyph glyph-name="h" unicode="h" horiz-adv-x="570" 
d="M499 30h-89v320q-1 52 -30 88q-21 26 -76 28q-48 0 -84.5 -37t-53.5 -109q-4 -18 -6 -35.5t-2 -36.5v-218h-89v721h89v-291q26 33 44 46q51 37 109 36q86 0 135 -43q53 -45 53 -134v-335z" />
    <glyph glyph-name="i" unicode="i" horiz-adv-x="241" 
d="M173 643h-109v108h109v-108zM166 30h-93v500h93v-500z" />
    <glyph glyph-name="j" unicode="j" horiz-adv-x="260" 
d="M198 643h-109v108h109v-108zM188 38q-1 -56 -15 -89q-15 -37 -47 -59q-32 -21 -76.5 -27.5t-87.5 -6.5v78q54 -2 76 5q61 20 61 88v503h89v-492z" />
    <glyph glyph-name="k" unicode="k" horiz-adv-x="518" 
d="M505 30h-113l-234 231v-231h-89v721h89v-412l222 191h120l-264 -223z" />
    <glyph glyph-name="l" unicode="l" horiz-adv-x="241" 
d="M166 30h-93v721h93v-721z" />
    <glyph glyph-name="m" unicode="m" horiz-adv-x="817" 
d="M746 30h-87v284q0 27 -3.5 57.5t-11.5 47.5q-9 22 -27.5 31.5t-43.5 9.5q-44 0 -76 -38t-42 -105q-3 -20 -4.5 -37.5t-1.5 -35.5v-214h-83v284q0 27 -3.5 56t-12.5 49q-9 22 -27 31.5t-47 9.5q-30 0 -53.5 -17.5t-38.5 -52.5q-14 -33 -20.5 -68t-7.5 -77v-215h-87v500h87
v-67q17 26 31 39q43 40 100 40q65 0 107 -33q28 -22 42 -57q20 32 33 45q46 46 114 45q70 0 116.5 -44t46.5 -139v-329z" />
    <glyph glyph-name="n" unicode="n" horiz-adv-x="570" 
d="M499 30h-89v320q0 52 -30 88q-21 28 -76 28q-48 0 -84.5 -37t-53.5 -109q-4 -18 -6 -35.5t-2 -36.5v-218h-89v500h89v-70q20 31 41 46q51 37 112 36q86 0 135 -43q53 -45 53 -134v-335z" />
    <glyph glyph-name="o" unicode="o" horiz-adv-x="582" 
d="M291 19q-109 0 -179.5 73.5t-70.5 188.5q0 113 70 187t180 74t180 -73.5t70 -187.5q0 -115 -70.5 -188.5t-179.5 -73.5zM291 89q69 0 112.5 55.5t43.5 136.5q0 79 -43.5 135t-112.5 56t-112.5 -56t-43.5 -135q0 -81 43.5 -136.5t112.5 -55.5z" />
    <glyph glyph-name="p" unicode="p" horiz-adv-x="570" 
d="M199 50v79q58 -35 96 -35q61 0 101 53q18 24 29 60t11 75t-11.5 73.5t-30.5 60.5q-19 25 -44.5 39.5t-54.5 14.5q-26 0 -52 -15.5t-44 -39.5q-19 -26 -30 -60t-11 -74v-425h-89v674h89v-56q54 68 145 68q53 0 97 -22t72 -58q26 -36 41 -80.5t15 -94.5q0 -64 -18 -113
t-45 -82q-28 -34 -70.5 -51.5t-86.5 -17.5q-57 0 -109 27z" />
    <glyph glyph-name="q" unicode="q" horiz-adv-x="570" 
d="M369 50q-51 -27 -110 -27q-44 0 -86 17.5t-70 51.5q-30 33 -46 82t-16 113q0 50 13.5 94.5t41.5 80.5t72 58t96 22q92 0 147 -68v56h88v-674h-88v425q0 40 -12.5 74t-30.5 60q-18 25 -44 40t-53 15t-53.5 -14.5t-44.5 -39.5q-19 -26 -29.5 -60.5t-10.5 -73.5t10.5 -74
t29.5 -62q17 -25 44 -38.5t54 -13.5q44 0 98 36v-80z" />
    <glyph glyph-name="r" unicode="r" horiz-adv-x="398" 
d="M380 456q-38 0 -71.5 -7t-60.5 -21q-27 -15 -50.5 -41t-31.5 -60q-9 -41 -9 -90v-207h-88v500h88v-88q26 36 83 69q53 31 140 31v-86z" />
    <glyph glyph-name="s" unicode="s" horiz-adv-x="449" 
d="M414 163q0 -32 -13 -59t-37 -45q-27 -20 -71.5 -30t-99.5 -10q-61 0 -155 26v91q24 -18 72 -31.5t83 -13.5q61 0 90 13q41 22 41 54q0 22 -15 38t-38 28q-25 12 -66 25.5t-78 31.5q-32 14 -59 43.5t-27 78.5q0 66 53.5 102.5t137.5 36.5q73 0 150 -24v-85
q-24 15 -66.5 27t-91.5 12q-38 0 -66.5 -16t-28.5 -44q0 -20 8.5 -33t30.5 -26q20 -12 67.5 -28t82.5 -32q38 -17 67 -49t29 -81z" />
    <glyph glyph-name="t" unicode="t" horiz-adv-x="375" 
d="M345 459h-145v-261v-42t9 -37q8 -14 24 -21t41 -7q30 0 68 7v-74q-35 -5 -82 -5q-76 0 -112.5 32t-36.5 94v314h-87v71h87v122l89 44v-166h145v-71z" />
    <glyph glyph-name="u" unicode="u" horiz-adv-x="570" 
d="M69 530h90v-320q0 -52 29 -88q22 -28 77 -28q48 0 84 37t54 109q4 18 6 35.5t2 36.5v218h88v-500h-88v69q-24 -33 -41 -45q-51 -36 -112 -36q-88 0 -135 43q-54 45 -54 134v335z" />
    <glyph glyph-name="v" unicode="v" horiz-adv-x="516" 
d="M504 530l-197 -500h-80l-215 500h93l161 -384l150 384h88z" />
    <glyph glyph-name="w" unicode="w" horiz-adv-x="710" 
d="M693 530l-129 -500h-84l-126 355l-123 -355h-81l-135 500h87l94 -362l123 362h70l126 -363l95 363h83z" />
    <glyph glyph-name="x" unicode="x" horiz-adv-x="510" 
d="M479 530l-173 -237l191 -263h-99l-142 195l-143 -195h-100l193 263l-172 237h100l122 -168l124 168h99z" />
    <glyph glyph-name="y" unicode="y" horiz-adv-x="500" 
d="M395 530h92l-261 -674h-90l78 203l-203 471h96l149 -362z" />
    <glyph glyph-name="z" unicode="z" horiz-adv-x="478" 
d="M443 30h-408v67l294 362h-275v71h375v-73l-291 -356h305v-71z" />
    <glyph glyph-name="braceleft" unicode="{" horiz-adv-x="458" 
d="M123 333v49q51 16 80 41.5t29 65.5q0 26 -9 54.5t-14 57.5q-3 30 -3 61.5t14 63.5q16 30 39 49t48 33t51 20t55 3v-44q-52 -12 -74.5 -38t-29.5 -52q-10 -34 -5.5 -65.5t9.5 -62.5q5 -30 3 -61t-16 -59q-22 -45 -50.5 -65t-47.5 -27q16 -6 46 -26.5t52 -64.5
q14 -28 16 -59t-3 -61q-5 -31 -9.5 -63.5t5.5 -64.5q8 -25 30 -51.5t74 -38.5v-44q-29 -3 -55 3t-51 20q-26 12 -48.5 32t-38.5 50q-14 32 -14.5 64t3.5 61q5 29 14 57.5t9 53.5q0 41 -29 66.5t-80 41.5z" />
    <glyph glyph-name="bar" unicode="|" horiz-adv-x="342" 
d="M210 -98h-79v909h79v-909z" />
    <glyph glyph-name="braceright" unicode="}" horiz-adv-x="458" 
d="M335 382v-49q-51 -16 -80 -41.5t-29 -65.5q0 -26 9 -54.5t14 -57.5q3 -30 3 -61.5t-14 -63.5q-16 -30 -39 -49t-48 -33t-51 -20t-55 -3v44q52 12 74.5 38t29.5 52q10 34 5.5 65.5t-9.5 62.5q-5 30 -3 61t16 59q22 45 50.5 64.5t47.5 26.5q-16 6 -46 27t-52 65
q-14 28 -16 59t3 61q5 31 9.5 63.5t-5.5 64.5q-8 25 -30 51.5t-74 38.5v44q29 3 55 -3t51 -20q26 -12 48.5 -32t38.5 -50q14 -32 14.5 -64t-3.5 -61q-5 -29 -14 -57.5t-9 -53.5q0 -41 29 -66.5t80 -41.5z" />
    <glyph glyph-name="asciitilde" unicode="~" horiz-adv-x="592" 
d="M548 460q0 -85 -38 -134t-107 -49q-34 0 -64 13.5t-63 51.5q-37 37 -53.5 47.5t-35.5 10.5q-32 0 -49.5 -24.5t-17.5 -86.5h-76q0 90 40.5 137.5t100.5 47.5q37 0 67 -15t63 -51q29 -30 47 -43.5t38 -13.5q35 0 53 25.5t18 83.5h77z" />
    <glyph glyph-name="uni0081" horiz-adv-x="940" 
d="M914 394h-150l-71 -349h-86l-84 349h-107l-84 -349h-85l-71 349h-149v55h138l-56 272h69l54 -272h133l66 272h77l66 -272h133l54 272h70l-56 -272h139v-55zM696 394h-109l60 -248zM352 394h-109l49 -248zM430 449h80l-40 166z" />
    <glyph glyph-name="uni0082" horiz-adv-x="408" 
d="M361 395v-74h-314v74h314z" />
    <glyph glyph-name="uni0083" horiz-adv-x="940" 
d="M464 802q88 0 168 -36t140 -97q61 -62 96.5 -144.5t35.5 -175.5q0 -89 -36 -168.5t-97 -138.5q-62 -59 -144.5 -93.5t-175.5 -34.5q-89 0 -168.5 34.5t-138.5 95.5q-59 60 -93.5 142t-34.5 176q0 88 34.5 168t95.5 140q60 61 142 96.5t176 35.5zM632 158
q-38 -20 -81.5 -27t-85.5 -3t-78 18.5t-59 37.5q-29 30 -48 74t-19 101q0 93 56 153t155 60q41 0 77.5 -10.5t63.5 -36.5q15 -18 23.5 -42t8.5 -57h-80q0 18 -3 33.5t-13 27.5q-9 12 -32.5 18.5t-46.5 6.5q-57 0 -93.5 -36.5t-36.5 -104.5q0 -20 2.5 -42.5t12.5 -45.5
q9 -22 26 -43t46 -37q10 -6 32.5 -10.5t50.5 -4.5t60 7t62 25v-62zM463 753q-84 0 -156 -31.5t-126 -85.5q-53 -53 -83 -125t-30 -153q0 -84 30 -156t82 -125t122 -83.5t150 -30.5q83 0 156 30t127 83q54 52 85 122.5t31 151.5q0 83 -31.5 157t-83.5 129l-3 3
q-54 52 -123.5 83t-146.5 31z" />
    <glyph glyph-name="uni0084" horiz-adv-x="940" 
d="M225 368v332h-135v60h329v-60h-135v-332h-59zM611 368l-108 261v-261h-55v392h59l124 -301l111 301h70v-392h-55v266l-102 -266h-44z" />
    <glyph glyph-name="uni0085" unicode="&#x85;" horiz-adv-x="858" 
d="M765 408v-100h-100v100h100zM479 408v-100h-100v100h100zM193 408v-100h-100v100h100z" />
    <glyph glyph-name="exclamdown" unicode="&#xa1;" horiz-adv-x="940" 
d="M412 -60l9 573h74l9 -573h-92zM402 760h114v-115h-114v115z" />
    <glyph glyph-name="cent" unicode="&#xa2;" horiz-adv-x="940" 
d="M657 114v-56q-29 -9 -62 -14t-68 -5q-36 0 -70 5t-63 14l-29 -74h-59l37 97q-9 5 -17.5 11.5t-14.5 13.5q-33 33 -55 83.5t-22 116.5q0 108 63.5 176.5t178.5 68.5q12 0 24 -1l24 -2l17 44h59l-22 -57q16 -6 31 -16t27 -22q18 -20 27.5 -46.5t9.5 -60.5h-84
q0 18 -3.5 36.5t-15.5 33.5q-3 3 -7 6.5t-9 6.5l-136 -353l1 -1h2q18 -10 57.5 -15.5t70.5 -5.5q12 0 43 3t65 13zM473 492q-69 0 -114 -45t-45 -126q0 -38 10.5 -83t47.5 -82l129 333q-7 1 -14.5 2t-13.5 1z" />
    <glyph glyph-name="sterling" unicode="&#xa3;" horiz-adv-x="940" 
d="M683 216h71q0 -28 -4 -50.5t-9 -37.5q-9 -21 -23 -36.5t-31 -25.5q-14 -8 -42.5 -13t-72.5 -5h-397v67h72q4 7 12 34.5t15 70.5q6 42 6 75.5t-6 67.5h-65v60h58q-7 50 -7.5 99.5t17.5 94.5q27 72 85.5 109.5t129.5 37.5q43 0 79.5 -16.5t63.5 -44.5q28 -27 45 -63t21 -75
h-72q-8 54 -46 92.5t-92 38.5q-56 0 -91.5 -31t-54.5 -77q-15 -36 -12.5 -82.5t9.5 -82.5h262v-60h-254q4 -37 4 -69t-6 -71q-6 -42 -12.5 -70.5t-11.5 -38.5h243q10 0 34 0.5t36 6.5q12 5 21.5 12.5t15.5 19.5q5 9 7 25.5t2 37.5z" />
    <glyph glyph-name="currency" unicode="&#xa4;" horiz-adv-x="759" 
d="M186 218q-23 27 -35 64.5t-12 81.5q0 43 13 81t37 67l-85 87l46 46l87 -89q24 18 61 32.5t80 14.5q41 0 78.5 -14.5t63.5 -33.5l89 90l46 -46l-90 -89q23 -29 38 -67t15 -79q0 -44 -13.5 -80.5t-35.5 -63.5l86 -85l-46 -46l-85 85q-26 -22 -65 -36.5t-81 -14.5
q-44 0 -83 14t-63 35l-82 -83l-46 46zM554 364q0 36 -14.5 68t-39.5 58q-24 24 -56 38.5t-66 14.5q-37 0 -68.5 -14.5t-55.5 -38.5t-38 -57t-14 -69q0 -38 13.5 -71.5t37.5 -57.5q25 -24 56.5 -38t68.5 -14q35 0 67 14t56 38t38.5 57.5t14.5 71.5z" />
    <glyph glyph-name="yen" unicode="&#xa5;" horiz-adv-x="940" 
d="M200 205v69h228v61h-228v69h210l-219 354h90l187 -309l192 309h87l-222 -354h200v-69h-217v-61h217v-69h-217v-157h-80v157h-228z" />
    <glyph glyph-name="section" unicode="&#xa7;" horiz-adv-x="386" 
d="M347 285q-7 -20 -18.5 -32t-23.5 -18q-7 -4 -11 -5.5t-7 -2.5q1 -2 9 -13t17 -33t12.5 -51.5t-5.5 -64.5q-8 -32 -27 -54t-43 -33q-25 -12 -53.5 -12.5t-54.5 8.5q-30 10 -46.5 29t-22.5 39q-5 19 0.5 36t23.5 21q19 4 32 -3.5t20 -19.5q8 -11 10 -24.5t0 -21.5
q-1 -5 8.5 -10t23.5 -4q16 1 30 10t20 33q6 28 -2 52t-23 46q-17 23 -39 45.5t-43 46.5q-20 20 -38.5 43t-31.5 47q-12 25 -14.5 50.5t9.5 52.5q8 16 20 25.5t24 14.5q7 3 9 4t5 2q-2 2 -7 9.5t-15 25.5q-9 17 -17 40t-8 51q-3 68 33.5 103t90.5 36q38 0 66.5 -14.5
t45.5 -34.5q17 -21 19.5 -43t-13.5 -35q-17 -16 -34 -13t-28 15t-15.5 28.5t-0.5 31.5q1 6 -11.5 12.5t-30.5 4.5q-17 -2 -32.5 -16.5t-15.5 -47.5t16 -59t41 -51q23 -25 51.5 -49.5t51.5 -52.5q22 -29 38.5 -68t4.5 -76zM249 369q-28 33 -51.5 49.5t-39.5 19.5
q-20 2 -27.5 -6t-7.5 -23q0 -14 7.5 -33t21.5 -34q29 -36 53.5 -52t38.5 -16q20 0 27 9t6 24t-9 32t-19 30z" />
    <glyph glyph-name="dieresis" unicode="&#xa8;" horiz-adv-x="560" 
d="M488 814v-109h-114v109h114zM186 814v-109h-114v109h114z" />
    <glyph glyph-name="ordfeminine" unicode="&#xaa;" horiz-adv-x="686" 
d="M117 227v69h452v-69h-452zM436 345v40q-17 -15 -36 -25q-18 -11 -43 -17.5t-56 -6.5q-24 0 -47.5 7.5t-42.5 21.5t-30.5 34.5t-11.5 46.5q0 52 32.5 83.5t76.5 48.5q45 16 91 19.5t67 0.5v25q0 9 -3 21.5t-11 23.5t-24.5 19t-43.5 8q-37 0 -56.5 -12.5t-19.5 -42.5h-98
q0 26 12 47t35 38q23 16 55 27t72 11q77 0 123.5 -40.5t46.5 -96.5v-281h-88zM436 498v38q-17 0 -48.5 -1.5t-59.5 -9.5q-28 -7 -47 -24t-19 -46t21 -40t47 -11q45 0 75.5 28t30.5 66z" />
    <glyph glyph-name="guillemotleft" unicode="&#xab;" horiz-adv-x="940" 
d="M213 358l578 -397l-24 -28l-625 425l625 425l24 -28zM409 358l475 -329l-23 -30l-523 359l523 358l24 -28z" />
    <glyph glyph-name="logicalnot" unicode="&#xac;" horiz-adv-x="940" 
d="M888 403v-329h-64v275h-799v54h863z" />
    <glyph glyph-name="uni00AD" unicode="&#xad;" horiz-adv-x="408" 
d="M367 400v-84h-326v84h326z" />
    <glyph glyph-name="registered" unicode="&#xae;" horiz-adv-x="920" 
d="M764 268l-20 -218h-582v74q0 46 42 91.5t111 87.5q38 22 72 38t64 30q29 14 52 28t38 32q22 27 27.5 54.5t-4.5 48.5q-8 23 -30 37.5t-54 17.5q-41 3 -68.5 -1.5t-45.5 -11.5q-17 -5 -25 -11.5l-8 -6.5q8 0 10.5 -3.5t8.5 -15.5q7 -13 10 -29.5t-3 -35.5q-10 -29 -32 -44
t-46 -17q-25 -2 -48.5 7t-34.5 30q-18 26 -18.5 52t8.5 49q11 23 29.5 42t39.5 33q40 26 88 37t93 13q45 1 83.5 -3t61.5 -8q45 -9 82 -31.5t60 -52.5q24 -31 29 -70t-12 -80q-15 -32 -40 -55t-57 -40q-31 -18 -65.5 -30.5t-66.5 -21.5q-110 -33 -156.5 -58.5t-57.5 -25.5
l322 -1q7 0 20.5 5.5t21.5 13.5q10 10 13.5 18.5t5.5 14.5q4 7 10 12t23 5h49zM160 -47h600q21 0 40.5 6t31.5 17q17 15 24.5 38.5t7.5 47.5v594q0 19 -6.5 41.5t-15.5 34.5q-16 17 -38.5 24t-46.5 7h-594q-24 0 -47 -7t-38 -24q-10 -12 -16 -34.5t-6 -41.5v-595
q0 -23 7 -46.5t24 -38.5q11 -11 31.5 -17t41.5 -6zM174 804h572q9 0 25.5 -1t35.5 -5q18 -4 36.5 -13t31.5 -24q20 -25 26 -54t6 -47v-588q0 -9 -1.5 -25.5t-5.5 -34.5t-13 -36t-24 -30q-25 -19 -54 -26.5t-49 -7.5h-600q-21 0 -50 7.5t-53 26.5q-16 12 -25 30t-13 36
t-5 34.5t-1 25.5v588q0 18 5.5 47t26.5 54q13 15 31.5 24t36.5 13q19 4 35.5 5t25.5 1z" />
    <glyph glyph-name="degree" unicode="&#xb0;" horiz-adv-x="258" 
d="M129 797q46 0 79 -33t33 -78q0 -46 -33 -78t-79 -32q-47 0 -79.5 32t-32.5 78q0 45 32.5 78t79.5 33zM129 730q-18 0 -30.5 -12.5t-12.5 -31.5t12.5 -31t30.5 -12q17 0 30 12t13 31t-13 31.5t-30 12.5z" />
    <glyph glyph-name="plusminus" unicode="&#xb1;" horiz-adv-x="662" 
d="M619 393h-244v-193h-87v193h-245v75h245v189h87v-189h244v-75zM619 65h-576v74h576v-74z" />
    <glyph glyph-name="uni00B2" unicode="&#xb2;" horiz-adv-x="387" 
d="M73 407q5 5 8.5 7.5t7.5 5.5t7.5 6t7.5 5q11 12 29.5 31.5t38.5 43.5q19 24 36.5 49t28.5 50q3 8 5.5 23.5t2.5 26.5q0 14 -11 33.5t-39 19.5q-24 0 -36.5 -15.5t-9.5 -47.5h-79q0 21 5.5 41.5t19.5 39.5q15 19 39 32t61 13q47 0 86.5 -33t39.5 -87q0 -13 -2.5 -32.5
t-8.5 -34.5q-11 -27 -29 -54t-38 -50q-21 -24 -41 -43t-23 -23h150v-67h-256v60z" />
    <glyph glyph-name="uni00B3" unicode="&#xb3;" horiz-adv-x="387" 
d="M284 564q6 -3 25.5 -26t19.5 -69q0 -53 -35 -91t-99 -38q-65 0 -97.5 31t-37.5 80h81q1 -21 12 -34.5t40 -13.5q30 0 44 18t14 49q0 40 -24.5 52.5t-64.5 12.5v62q32 0 47 2.5t20 8.5q9 11 13 20t4 26q1 25 -13 39.5t-36 14.5q-26 0 -39 -11.5t-17 -35.5h-72
q0 22 7.5 40.5t22.5 32.5q15 16 38.5 26t56.5 10q23 0 46 -8t41 -24q18 -14 29.5 -35.5t11.5 -48.5q0 -42 -16.5 -65.5t-21.5 -24.5z" />
    <glyph glyph-name="acute" unicode="&#xb4;" horiz-adv-x="940" 
d="M553 755l-94 -178h-77l68 178h103z" />
    <glyph glyph-name="paragraph" unicode="&#xb6;" horiz-adv-x="940" 
d="M598 763v-848h-51v799h-89v-799h-51v474q-87 0 -140.5 54t-53.5 136q0 37 15 70.5t40 57.5q27 26 62 41t77 15h191z" />
    <glyph glyph-name="periodcentered" unicode="&#xb7;" horiz-adv-x="286" 
d="M199 413v-110h-112v110h112z" />
    <glyph glyph-name="cedilla" unicode="&#xb8;" horiz-adv-x="310" 
d="M276 53v-105q0 -41 -37 -66t-89 -25q-35 -1 -66 9t-58 27l23 34q17 -12 33.5 -17t39.5 -5q28 0 45 7.5t21 30.5v110h88z" />
    <glyph glyph-name="uni00B9" unicode="&#xb9;" horiz-adv-x="387" 
d="M168 682l-68 -43v77l85 52h58v-423h-75v337z" />
    <glyph glyph-name="ordmasculine" unicode="&#xba;" horiz-adv-x="686" 
d="M117 227v69h452v-69h-452zM345 343q-89 0 -144 55t-55 154q0 43 11.5 81t36.5 68t62 47.5t87 17.5q93 0 146.5 -59t53.5 -154q0 -94 -52.5 -152t-145.5 -58zM240 552q0 -59 24.5 -100t80.5 -41q55 0 79 41t24 101q0 59 -24.5 102t-81.5 43q-29 0 -48.5 -11.5t-31.5 -31.5
q-12 -21 -17 -47t-5 -56z" />
    <glyph glyph-name="guillemotright" unicode="&#xbb;" horiz-adv-x="940" 
d="M709 358l-578 397l24 28l625 -425l-625 -425l-24 28zM513 358l-476 330l24 28l523 -358l-523 -359l-23 30z" />
    <glyph glyph-name="onequarter" unicode="&#xbc;" horiz-adv-x="940" 
d="M109 -48l-56 46l683 780l57 -43zM198 692l-68 -43v77l85 52h58v-423h-75v337zM667 64h-157v53l160 264h70v-250h63v-67h-63v-106h-73v106zM667 252l-71 -121h71v121z" />
    <glyph glyph-name="onehalf" unicode="&#xbd;" horiz-adv-x="940" 
d="M109 -48l-56 46l683 780l57 -43zM198 682l-68 -43v77l85 52h58v-423h-75v337zM533 17q5 5 8.5 7.5t7.5 5.5t7.5 6t7.5 5q11 12 29.5 31.5t38.5 43.5q19 24 36.5 49t28.5 50q3 8 5.5 23.5t2.5 26.5q0 14 -11 33.5t-39 19.5q-24 0 -36.5 -15.5t-9.5 -47.5h-79
q0 21 5.5 41.5t19.5 39.5q15 19 39 32t61 13q47 0 86.5 -33t39.5 -87q0 -13 -2.5 -32.5t-8.5 -34.5q-11 -27 -29 -54t-38 -50q-21 -24 -41 -43t-23 -23h150v-67h-256v60z" />
    <glyph glyph-name="threequarters" unicode="&#xbe;" horiz-adv-x="940" 
d="M109 -48l-56 46l683 780l57 -43zM284 574q6 -3 25.5 -26t19.5 -69q0 -53 -35 -91t-99 -38q-65 0 -97.5 31t-37.5 80h81q1 -21 12 -34.5t40 -13.5q30 0 44 18t14 49q0 40 -24.5 52.5t-64.5 12.5v62q32 0 47 2.5t20 8.5q9 11 13 20t4 26q1 25 -13 39.5t-36 14.5
q-26 0 -39 -11.5t-17 -35.5h-72q0 22 7.5 40.5t22.5 32.5q15 16 38.5 26t56.5 10q23 0 46 -8t41 -24q18 -14 29.5 -35.5t11.5 -48.5q0 -42 -16.5 -65.5t-21.5 -24.5zM667 64h-157v53l160 264h70v-250h63v-67h-63v-106h-73v106zM667 252l-71 -121h71v121z" />
    <glyph glyph-name="questiondown" unicode="&#xbf;" horiz-adv-x="940" 
d="M219 127q0 36 17.5 70t40.5 63q23 27 46.5 48.5t36.5 33.5q17 15 29 27.5t19 29.5q8 15 12 38t4 62v47h80v-76q0 -63 -20 -99.5t-54 -66.5l-38 -38t-41 -44q-19 -22 -32 -46t-13 -45q0 -29 11.5 -49.5t30.5 -33.5q19 -15 43.5 -21.5t51.5 -6.5q33 0 79 11t83 27v-83
q-33 -9 -75 -17t-91 -8q-41 0 -80.5 8.5t-70.5 29.5t-50 55t-19 84zM407 760h115v-115h-115v115z" />
    <glyph glyph-name="AE" unicode="&#xc6;" horiz-adv-x="848" 
d="M1 28l301 711h490v-77h-300v-224h289v-76h-289v-257h309v-77h-400v215h-220l-91 -215h-89zM351 644l-139 -325h189v325h-50z" />
    <glyph glyph-name="Eth" unicode="&#xd0;" horiz-adv-x="708" 
d="M137 359h-115v66h115v314h178q99 0 167 -29q80 -34 131 -112.5t51 -211.5q0 -78 -18.5 -134.5t-49.5 -99.5q-31 -42 -71.5 -71t-87.5 -39q-65 -14 -133 -14h-167v331zM226 359v-254h80q54 -1 108 10q25 5 54.5 27t51.5 52q23 33 39 79t16 112q-2 68 -17 114.5t-38 78.5
q-24 33 -53.5 50.5t-58.5 24.5q-46 8 -111 9h-71v-237h219v-66h-219z" />
    <glyph glyph-name="multiply" unicode="&#xd7;" horiz-adv-x="662" 
d="M612 136l-55 -58l-225 223l-213 -216l-61 56l219 214l-211 211l58 58l207 -211l209 207l56 -54l-207 -209z" />
    <glyph glyph-name="Oslash" unicode="&#xd8;" horiz-adv-x="763" 
d="M606 384q0 60 -17 116q-8 28 -20 51l-319 -418q17 -12 36 -21q44 -22 90 -22t90.5 21.5t74.5 60.5q31 40 48 96t17 116zM530 609q-27 30 -63 48q-45 21 -91 21t-90 -21.5t-75 -60.5q-31 -40 -47 -96t-16 -116t16 -116q14 -50 40 -87zM699 384q0 -76 -23.5 -144
t-66.5 -119q-44 -50 -105.5 -77t-127.5 -27q-67 0 -127 27q-25 11 -47 26l-52 -68l-57 33l59 77q-4 5 -8 9q-44 51 -67 119t-23 144t23 144t67 119q44 50 104.5 77t127.5 27q66 0 128 -27q42 -19 77 -49l50 66l55 -36l-60 -79q31 -44 50 -98q23 -68 23 -144z" />
    <glyph glyph-name="Thorn" unicode="&#xde;" horiz-adv-x="593" 
d="M168 739v-168h95q57 0 109.5 -12.5t93.5 -38.5q38 -26 61 -65.5t23 -92.5q0 -57 -23 -96t-59 -63q-36 -25 -81 -35t-88 -10h-131v-130h-90v711h90zM168 497v-264h115q75 0 122.5 29t52.5 102q0 35 -16 60.5t-39 40.5q-22 17 -51.5 24.5t-60.5 7.5h-123z" />
    <glyph glyph-name="germandbls" unicode="&#xdf;" horiz-adv-x="606" 
d="M299 367h-51v74h18q38 0 69 5.5t54 19.5q24 13 38 38.5t14 62.5q0 55 -37 82.5t-98 27.5q-67 0 -98 -42.5t-31 -118.5v-488h-89v490q0 108 60 171t158 63q93 0 157 -43t67 -137q0 -78 -46.5 -119t-60.5 -44q5 -2 26 -10.5t47 -27.5q26 -20 44.5 -53.5t18.5 -85.5
q0 -57 -22.5 -96t-58.5 -63q-36 -25 -81 -35t-92 -10h-57v75h40q79 0 126.5 29t53.5 102q-2 35 -17 60.5t-37 40.5q-23 17 -52.5 24.5t-62.5 7.5z" />
    <glyph glyph-name="ae" unicode="&#xe6;" horiz-adv-x="821" 
d="M770 322v-61h-327q8 -92 54.5 -133.5t143.5 -41.5q13 0 43.5 3t70.5 15v-67q-35 -10 -68 -15t-68 -5q-78 0 -132.5 24.5t-85.5 76.5q-22 -43 -71.5 -72t-141.5 -29q-25 0 -50.5 9t-45.5 27q-20 17 -31.5 42t-11.5 56q0 62 33 96.5t83 51.5q47 16 101 20t91 4v46
q0 7 -3 27.5t-14 37.5q-10 16 -30 27.5t-56 11.5q-46 0 -70.5 -20.5t-24.5 -59.5h-98q0 31 11.5 56.5t36.5 45.5q24 21 60.5 34t84.5 13q62 0 102.5 -21t57.5 -48q23 29 66 49t104 20q47 0 84.5 -13.5t61.5 -43.5t32 -75t8 -88zM357 216v46q-27 0 -65.5 -2.5t-72.5 -12.5
q-34 -9 -56.5 -29.5t-22.5 -56.5q0 -45 26.5 -60t59.5 -15q14 0 32 5.5t34 16.5q37 23 56 57q9 15 9 51zM580 473q-61 0 -96 -40t-41 -104h234q0 20 -2.5 52.5t-13.5 49.5q-10 19 -30.5 30.5t-50.5 11.5z" />
    <glyph glyph-name="eth" unicode="&#xf0;" horiz-adv-x="583" 
d="M347 678l119 69l33 -54l-99 -58q57 -55 90 -147.5t33 -221.5v-1q0 -115 -66 -181.5t-176 -66.5q-109 0 -174.5 63t-65.5 185q0 52 15 98t47 80q30 35 75.5 55t100.5 20q35 0 69 -8t51 -20q-9 24 -30.5 55t-42.5 48l-135 -80l-34 55l117 68q-24 13 -64 24.5t-87 19.5v66
q69 -6 125.5 -23t98.5 -45zM132 265q0 -76 37.5 -127.5t112.5 -51.5q38 0 65 14t45 38t28.5 57.5t10.5 70.5q0 36 -10.5 69.5t-29.5 58.5q-18 25 -46 40t-67 15q-78 0 -112 -52.5t-34 -131.5z" />
    <glyph glyph-name="divide" unicode="&#xf7;" horiz-adv-x="662" 
d="M399 584q0 -27 -20 -45t-47 -18q-29 0 -49 18t-20 45q0 31 19.5 50.5t49.5 19.5q31 0 49 -21t18 -49zM627 317h-592v80h592v-80zM400 130q0 -28 -20.5 -48t-48.5 -20q-30 0 -50 19t-20 48q0 26 20.5 46.5t48.5 20.5q32 0 51 -20t19 -46z" />
    <glyph glyph-name="oslash" unicode="&#xf8;" horiz-adv-x="602" 
d="M445 279q0 39 -11 77q-2 6 -4 13l-199 -266q2 -2 5 -3q29 -14 59 -14t59 14t50 40q19 26 30 63t11 76zM394 430q-18 18 -40 29q-29 14 -59 14t-59 -14t-49 -40t-30.5 -63.5t-10.5 -76.5t11 -76q8 -31 24 -55zM538 279q0 -54 -17.5 -102.5t-50.5 -84.5q-32 -36 -79 -55.5
t-96 -19.5q-50 0 -96 20q-7 2 -13 6l-45 -60l-58 35l48 63q-6 5 -11 11q-34 36 -50.5 84.5t-16.5 102.5t16.5 103t50.5 85q33 36 79 55.5t96 19.5q49 0 96 -19q28 -12 50 -29l40 52l54 -36l-48 -64q21 -29 34 -64q17 -49 17 -103z" />
    <glyph glyph-name="thorn" unicode="&#xfe;" horiz-adv-x="592" 
d="M96 -138v877h85v-274q4 5 10.5 14t25.5 25q19 15 47.5 26.5t63.5 11.5q59 0 99.5 -23t67.5 -60q26 -38 37.5 -85t11.5 -96q0 -129 -65.5 -193.5t-166.5 -64.5q-48 0 -83 15t-48 29v-202h-85zM183 261q0 -30 7 -60.5t23 -56.5q15 -25 39.5 -40.5t59.5 -15.5q64 0 100.5 52
t36.5 133q0 36 -7 71.5t-21 63.5q-15 28 -39 45t-63 17q-31 0 -55.5 -16.5t-44.5 -44.5q-18 -30 -27 -67.5t-9 -80.5z" />
    <glyph glyph-name="dcroat" unicode="&#x111;" horiz-adv-x="596" 
d="M398 590h-245v66h245v94h85v-94h98v-66h-98v-560h-85v64h-2q-2 -8 -10.5 -18t-20.5 -19q-19 -15 -49.5 -26.5t-73.5 -11.5q-45 0 -82 18.5t-64 51.5q-27 34 -41.5 79.5t-14.5 100.5q0 26 2 53t8 48q22 92 80 131.5t126 39.5q34 -1 59.5 -10.5t43.5 -23.5
q13 -11 21.5 -19.5t15.5 -19.5h2v122zM136 266q0 -31 7.5 -63t22.5 -59q16 -26 39.5 -42t56.5 -16q46 0 77.5 36.5t42.5 91.5q3 18 5 45t2 51q0 19 -7.5 47t-21.5 55q-16 25 -40 42.5t-59 17.5q-37 0 -73.5 -31t-45.5 -96q-3 -17 -4.5 -38t-1.5 -41z" />
    <glyph glyph-name="Hbar" unicode="&#x126;" horiz-adv-x="733" 
d="M126 530h-115v66h115v154h93v-154h311v154h93v-154h99v-66h-99v-500h-93v336h-311v-336h-93v500zM219 442h311v88h-311v-88z" />
    <glyph glyph-name="hbar" unicode="&#x127;" horiz-adv-x="591" 
d="M113 590h-98v66h98v94h84v-94h246v-66h-246v-158h2q3 10 11 24.5t24 31.5q21 22 52 37.5t75 15.5q28 0 57 -8t52 -25q24 -17 39 -45.5t15 -68.5v-364h-86v330q0 16 -4.5 34.5t-14.5 34.5q-11 17 -28 27.5t-44 10.5q-45 0 -85 -41.5t-56 -102.5q-5 -19 -7 -36.5t-2 -36.5
v-220h-84v560z" />
    <glyph glyph-name="dotlessi" unicode="&#x131;" horiz-adv-x="234" 
d="M69 30v500h92v-500h-92z" />
    <glyph glyph-name="IJ" unicode="&#x132;" horiz-adv-x="670" 
d="M91 30v720h95v-720h-95zM586 750v-560q0 -29 -9.5 -59t-31.5 -55q-24 -25 -64 -41t-101 -16q-30 0 -51.5 2.5t-48.5 9.5v84q24 -9 51.5 -14t53.5 -6h13.5t16.5 2q12 2 25.5 7t25.5 16t19.5 30t7.5 49v551h93z" />
    <glyph glyph-name="ij" unicode="&#x133;" horiz-adv-x="460" 
d="M78 30v500h92v-500h-92zM69 643v108h108v-108h-108zM157 -171v76q22 0 45 0.5t42 7.5q20 9 34.5 28t14.5 60v529h91v-506q0 -62 -19 -100.5t-50 -59.5q-32 -22 -71.5 -28.5t-86.5 -6.5zM282 646v105h109v-105h-109z" />
    <glyph glyph-name="kgreenlandic" unicode="&#x138;" horiz-adv-x="483" 
d="M69 30v500h82v-185h1l195 185h110l-250 -235l279 -265h-118l-216 204h-1v-204h-82z" />
    <glyph glyph-name="Ldot" unicode="&#x13f;" horiz-adv-x="506" 
d="M74 30v720h92v-643h325v-77h-417zM304 450h112v-110h-112v110z" />
    <glyph glyph-name="ldot" unicode="&#x140;" horiz-adv-x="396" 
d="M91 30v720h88v-720h-88zM244 480h112v-110h-112v110z" />
    <glyph glyph-name="Lslash" unicode="&#x141;" horiz-adv-x="548" 
d="M119 354l-97 -66l-41 54l138 95v313h92v-249l139 96l41 -53l-180 -125v-312h325v-77h-417v324z" />
    <glyph glyph-name="lslash" unicode="&#x142;" horiz-adv-x="492" 
d="M191 334l-138 -128l-44 49l182 170v325h88v-243l155 145l45 -50l-200 -187v-385h-88v304z" />
    <glyph glyph-name="napostrophe" unicode="&#x149;" horiz-adv-x="731" 
d="M249 30v500h82v-95h1q4 11 10.5 21.5t26.5 33.5q22 21 53.5 36.5t77.5 15.5q69 0 112 -40t46 -117v-355h-82v276q0 27 -1.5 54t-10.5 49q-8 22 -27 36t-55 17q-46 3 -86 -40.5t-57 -112.5q-4 -20 -6 -37t-2 -35v-207h-82zM179 819v-89q0 -19 -4 -44.5t-14 -41.5
q-11 -17 -27 -29.5t-41 -25.5l-42 50q23 8 34 15t17 16q6 8 7.5 18t1.5 16h-52v115h120z" />
    <glyph glyph-name="Eng" unicode="&#x14a;" horiz-adv-x="672" 
d="M589 750v-739q0 -29 -9.5 -59t-31.5 -55q-24 -25 -64 -41t-101 -16q-30 0 -51.5 2.5t-48.5 9.5v84q24 -9 51.5 -14t53.5 -6h13.5t16.5 2q12 2 26.5 7t26.5 16q12 12 20.5 30.5t8.5 44.5v14h-24l-303 580h-2v-580h-88v720h112l303 -582h2v582h89z" />
    <glyph glyph-name="eng" unicode="&#x14b;" horiz-adv-x="554" 
d="M260 -173v76q22 0 45 0.5t42 7.5q20 9 34.5 28t14.5 59v309q0 26 -1.5 53t-10.5 49q-8 22 -27 36t-55 17q-46 3 -86 -40.5t-57 -112.5q-4 -20 -6 -37t-2 -35v-207h-82v500h82v-95h2q3 10 10.5 23.5t25.5 31.5q22 21 53.5 36.5t77.5 15.5q69 0 112 -40t46 -117v-364
q0 -61 -17.5 -99.5t-47.5 -59.5q-29 -22 -67.5 -28.5t-85.5 -6.5z" />
    <glyph glyph-name="OE" unicode="&#x152;" horiz-adv-x="925" 
d="M484 30v19q-22 -11 -56.5 -20.5t-73.5 -9.5q-77 0 -135.5 29t-99.5 80q-40 50 -60 117.5t-20 145.5q0 73 20 139.5t60 117.5q41 51 99.5 82t135.5 31q39 0 73.5 -9.5t56.5 -20.5v19h395v-77h-303v-228h291v-76h-291v-262h312v-77h-404zM354 92q37 0 70.5 14.5t59.5 39.5
v485q-26 25 -60 41t-71 16q-48 0 -88 -22.5t-69 -61.5q-29 -40 -45 -94.5t-16 -117.5q0 -59 16 -113.5t45 -96.5q28 -42 68.5 -66t89.5 -24z" />
    <glyph glyph-name="oe" unicode="&#x153;" horiz-adv-x="846" 
d="M810 329v-63h-337q8 -92 59.5 -133.5t148.5 -41.5q12 0 42.5 3t71.5 15v-66q-34 -11 -67.5 -16t-68.5 -5q-143 -8 -220 87q-23 -36 -74.5 -61.5t-105.5 -25.5q-109 0 -166.5 68t-57.5 190q0 52 14 99.5t42 83.5q29 37 70 58.5t96 21.5q53 0 103 -23t74 -57
q23 34 69.5 57.5t114.5 23.5q49 0 84 -18t58 -48t35 -68.5t15 -80.5zM129 280q0 -39 8 -73t24 -61q17 -26 41 -40.5t58 -14.5q35 0 58.5 15t39.5 41q15 27 22 61.5t7 72.5q0 37 -7 71.5t-22 62.5q-16 27 -41 43t-61 16q-32 0 -55.5 -15.5t-40.5 -41.5q-15 -27 -23 -62
t-8 -75zM614 475q-61 0 -99 -38.5t-42 -102.5h242q-1 23 -6.5 49.5t-16.5 47.5q-12 20 -30.5 32t-47.5 12z" />
    <glyph glyph-name="Tbar" unicode="&#x166;" horiz-adv-x="534" 
d="M221 367h-163v68h163v238h-211v77h514v-77h-211v-238h160v-68h-160v-337h-92v337z" />
    <glyph glyph-name="tbar" unicode="&#x167;" horiz-adv-x="355" 
d="M102 284h-86v66h86v112h-87v68h87v114l87 53v-167h144v-68h-144v-112h145v-66h-145v-86q0 -22 2 -42t10 -35t23.5 -23t42.5 -8q17 0 31 1.5t32 6.5v-73q-24 -4 -42.5 -4.5t-35.5 -0.5q-75 0 -112.5 32t-37.5 93v139z" />
    <glyph glyph-name="afii57929" unicode="&#x2bc;" horiz-adv-x="322" 
d="M101 800h111v-81q0 -36 -5 -56.5t-19 -41.5q-15 -21 -32 -32.5t-27 -14.5l-30 46q8 0 19.5 7t21.5 19q8 10 11.5 21.5t3.5 21.5h-54v111z" />
    <glyph glyph-name="caron" unicode="&#x2c7;" horiz-adv-x="940" 
d="M634 810v-67l-159 -75l-160 75v67l160 -72z" />
    <glyph glyph-name="uni02D0" unicode="&#x2d0;" horiz-adv-x="253" 
d="M208 144h-164l81 136zM44 612h164l-83 -137z" />
    <glyph glyph-name="breve" unicode="&#x2d8;" horiz-adv-x="940" 
d="M642 744q-33 -32 -73 -53.5t-86 -21.5q-44 0 -86 22.5t-74 52.5v70q45 -36 82.5 -56.5t77.5 -20.5q38 0 76 20.5t83 56.5v-70z" />
    <glyph glyph-name="dotaccent" unicode="&#x2d9;" horiz-adv-x="940" 
d="M482 665q-25 0 -42 15.5t-18 41.5q0 24 16.5 41t44.5 17q27 0 42.5 -16t16.5 -42q0 -23 -15.5 -40t-44.5 -17z" />
    <glyph glyph-name="ring" unicode="&#x2da;" horiz-adv-x="940" 
d="M461 830q39 0 66 -27.5t27 -64.5q0 -38 -27 -65t-66 -27t-66 27t-27 65q0 37 27 64.5t66 27.5zM461 784q-17 0 -30 -13.5t-13 -32.5t13 -32.5t30 -13.5q16 0 29.5 13.5t13.5 32.5t-13.5 32.5t-29.5 13.5z" />
    <glyph glyph-name="ogonek" unicode="&#x2db;" horiz-adv-x="310" 
d="M34 -52v105h88v-110q3 -23 20 -30.5t46 -7.5q22 0 39 5t34 17l23 -34q-28 -17 -59 -27t-65 -9q-53 0 -89.5 25t-36.5 66z" />
    <glyph glyph-name="tilde" unicode="&#x2dc;" horiz-adv-x="940" 
d="M177 306v57q0 22 8.5 44.5t24.5 39.5t39 28t52 11q52 0 91 -24t72 -53q32 -29 63.5 -52.5t69.5 -23.5q31 0 48.5 26t17.5 51v44h61v-61q0 -12 -6.5 -32.5t-21.5 -40.5t-40 -34.5t-62 -14.5q-53 0 -90.5 23.5t-68.5 52.5q-32 28 -62 52t-67 24q-23 0 -45.5 -16.5
t-22.5 -51.5v-49h-61z" />
    <glyph glyph-name="hungarumlaut" unicode="&#x2dd;" horiz-adv-x="940" 
d="M517 755l-94 -178h-77l68 178h103zM637 755l-94 -178h-77l68 178h103z" />
    <glyph glyph-name="Alpha" unicode="&#x391;" horiz-adv-x="615" 
d="M2 30l251 720h104l254 -720h-101l-75 220h-265l-78 -220h-90zM301 647l-106 -321h215l-107 321h-2z" />
    <glyph glyph-name="Beta" unicode="&#x392;" horiz-adv-x="590" 
d="M83 30v720h222q41 0 80.5 -9.5t70.5 -30.5q32 -22 51.5 -56.5t21.5 -83.5q0 -32 -10 -56.5t-24 -43.5q-14 -18 -27.5 -28.5t-25.5 -16.5q-18 -9 -35 -14v-2q13 -3 38 -10t51 -26q26 -20 44.5 -53.5t18.5 -85.5q0 -82 -45.5 -129.5t-112.5 -65.5q-22 -5 -48.5 -7t-47.5 -2
h-222zM175 675v-232h93h21.5t28.5 2q18 1 39 7t39 21q18 14 30 36t12 56q0 52 -31.5 76t-74.5 31q-12 1 -27.5 2t-26.5 1h-103zM175 369v-264h116h21t28 2q18 2 39.5 8.5t40.5 21.5q18 14 30.5 37.5t14.5 61.5q0 44 -23.5 76.5t-73.5 47.5q-14 4 -34.5 6.5t-34.5 2.5h-124z
" />
    <glyph glyph-name="Gamma" unicode="&#x393;" horiz-adv-x="490" 
d="M84 30v720h396v-77h-304v-643h-92z" />
    <glyph glyph-name="Delta" unicode="&#x394;" horiz-adv-x="615" 
d="M357 750l254 -720h-609l252 720h103zM303 649h-2l-183 -543h366z" />
    <glyph glyph-name="Epsilon" unicode="&#x395;" horiz-adv-x="525" 
d="M84 30v720h395v-77h-303v-228h291v-76h-291v-262h312v-77h-404z" />
    <glyph glyph-name="Zeta" unicode="&#x396;" horiz-adv-x="540" 
d="M21 30v75l378 568h-360v77h465v-75l-377 -568h402v-77h-508z" />
    <glyph glyph-name="Eta" unicode="&#x397;" horiz-adv-x="660" 
d="M82 30v720h93v-308h311v308h93v-720h-93v336h-311v-336h-93z" />
    <glyph glyph-name="Theta" unicode="&#x398;" horiz-adv-x="710" 
d="M354 19q-79 0 -137.5 29t-98.5 80q-40 50 -59.5 117.5t-19.5 145.5q0 73 19.5 139.5t59.5 117.5t99 82t137 31q77 0 136 -29t99 -80q39 -50 59.5 -117t20.5 -143q0 -74 -20.5 -141t-59.5 -119q-40 -52 -98.5 -82.5t-136.5 -30.5zM135 392q0 -59 14 -113.5t42 -97.5
q27 -41 68 -65t95 -24q53 0 93 23t69 63q27 40 41.5 95.5t14.5 119.5q0 59 -15 113t-42 94q-29 41 -69.5 64.5t-92.5 23.5q-53 0 -94 -22.5t-68 -61.5q-28 -40 -42 -94.5t-14 -117.5zM214 425h283v-76h-283v76z" />
    <glyph glyph-name="Iota" unicode="&#x399;" horiz-adv-x="280" 
d="M91 30v720h95v-720h-95z" />
    <glyph glyph-name="Kappa" unicode="&#x39a;" horiz-adv-x="590" 
d="M82 30v720h91v-306h2l272 306h108l-302 -338l344 -382h-119l-303 335h-2v-335h-91z" />
    <glyph glyph-name="Lambda" unicode="&#x39b;" horiz-adv-x="615" 
d="M301 645l-209 -615h-90l251 720h104l254 -720h-101l-207 615h-2z" />
    <glyph glyph-name="Mu" unicode="&#x39c;" horiz-adv-x="840" 
d="M80 30v720h130l208 -600h2l207 600h130v-720h-84l1 596h-2l-210 -596h-88l-208 596h-2v-596h-84z" />
    <glyph glyph-name="Nu" unicode="&#x39d;" horiz-adv-x="670" 
d="M82 30v720h113l302 -584h2v584h89v-720h-113l-302 581h-2v-581h-89z" />
    <glyph glyph-name="Xi" unicode="&#x39e;" horiz-adv-x="547" 
d="M510 30h-473v77h473v-77zM46 750h455v-77h-455v77zM489 369h-431v76h431v-76z" />
    <glyph glyph-name="Omicron" unicode="&#x39f;" horiz-adv-x="730" 
d="M364 19q-80 0 -141 29t-102 80q-41 50 -61.5 117.5t-20.5 145.5q0 73 20.5 139.5t61.5 117.5t102 82t141 31q81 0 141.5 -29t101.5 -80q40 -50 61 -117t21 -143q0 -74 -18.5 -141t-58.5 -119t-101.5 -82.5t-146.5 -30.5zM135 392q0 -59 14.5 -113.5t43.5 -96.5
q28 -42 71 -66t100 -24t99.5 23t71.5 63q28 40 42.5 95.5t14.5 119.5q0 59 -14.5 113.5t-43.5 94.5t-71.5 63.5t-99.5 23.5q-51 -1 -93.5 -23.5t-71.5 -61.5q-31 -39 -47 -93.5t-16 -117.5z" />
    <glyph glyph-name="Pi" unicode="&#x3a0;" horiz-adv-x="660" 
d="M175 674v-644h-93v720h497v-720h-93v644h-311z" />
    <glyph glyph-name="Rho" unicode="&#x3a1;" horiz-adv-x="560" 
d="M207 327v79h65q34 0 64.5 6.5t53.5 21.5q24 16 39 42t15 67q0 36 -16 61t-40 40q-25 14 -56 21.5t-61 7.5h-98v-643h-90v720h187q49 0 97 -9.5t85 -33.5q40 -24 64 -64t24 -100q0 -62 -24 -103.5t-62 -66.5q-38 -26 -85 -36t-95 -10h-67z" />
    <glyph glyph-name="Sigma" unicode="&#x3a3;" horiz-adv-x="472" 
d="M21 676v74h405v-77h-296l246 -266l-250 -300h309v-77h-414v74l248 303z" />
    <glyph glyph-name="Tau" unicode="&#x3a4;" horiz-adv-x="530" 
d="M218 30v643h-211v77h514v-77h-211v-643h-92z" />
    <glyph glyph-name="Upsilon" unicode="&#x3a5;" horiz-adv-x="558" 
d="M231 30v332l-241 388h104l183 -303l188 303h101l-243 -388v-332h-92z" />
    <glyph glyph-name="Phi" unicode="&#x3a6;" horiz-adv-x="750" 
d="M321 657v93h95v-92q64 -5 119 -29t93 -60q39 -36 60 -82t21 -95q0 -50 -21 -97t-60 -83q-38 -38 -93 -62.5t-119 -29.5v-90h-95v92q-62 5 -115.5 30t-90.5 62q-37 36 -56.5 82t-19.5 95t19.5 94t56.5 81t90.5 60.5t115.5 30.5zM612 393q0 78 -56 130.5t-140 61.5v-390
q85 8 140.5 63.5t55.5 134.5zM135 392q0 -78 52.5 -131.5t133.5 -64.5v388q-82 -11 -134 -63t-52 -129z" />
    <glyph glyph-name="Chi" unicode="&#x3a7;" horiz-adv-x="560" 
d="M-9 30l237 377l-215 343h102l164 -261l162 261h102l-214 -343l237 -377h-102l-185 294l-186 -294h-102z" />
    <glyph glyph-name="Psi" unicode="&#x3a8;" horiz-adv-x="674" 
d="M607 750v-253q0 -40 -11.5 -84.5t-37.5 -83.5q-26 -40 -69.5 -69.5t-101.5 -36.5v-193h-95v192q-62 5 -107 33.5t-71 67.5q-27 40 -37 86t-10 88v253h94v-250q0 -36 7.5 -69t23.5 -61q17 -27 43 -46t57 -24v450h95v-448q27 6 52 25t42 46q15 27 23.5 59.5t8.5 67.5v250
h94z" />
    <glyph glyph-name="Omega" unicode="&#x3a9;" horiz-adv-x="686" 
d="M297 219v-189h-224v77h132v67q-65 36 -106 107t-41 170q0 71 23 128t62 98q39 40 90.5 62t109.5 22q56 0 108 -22t92 -62q38 -40 61.5 -97t23.5 -128q0 -101 -44 -174t-109 -108v-63h132v-77h-224v187q63 17 105.5 78.5t42.5 157.5q0 55 -16.5 99t-42.5 74t-60.5 46
t-69.5 16q-37 0 -70.5 -15.5t-59.5 -45.5q-27 -30 -42.5 -74.5t-15.5 -100.5q0 -95 40.5 -155t102.5 -78z" />
    <glyph glyph-name="alpha" unicode="&#x3b1;" horiz-adv-x="569" 
d="M230 22q-51 0 -88 21.5t-60 58.5q-25 35 -36 81.5t-11 96.5t12 97t38 83q24 37 62.5 60t89.5 23q53 0 95.5 -29t63.5 -84q0 31 0.5 49t0.5 51h96q-6 -92 -19 -165t-32 -131v-23q0 -6 0.5 -12t0.5 -12q0 -37 6.5 -55.5t18.5 -26.5t30 -9t49 -1v-65h-62t-53 5t-42.5 19.5
t-25.5 33.5q-23 -29 -58 -47.5t-76 -18.5zM230 91q32 0 62.5 22t54.5 75q0 92 -9.5 148.5t-25.5 87.5q-15 30 -35 40t-41 10q-28 0 -48 -16.5t-34 -44.5q-13 -27 -19 -62t-6 -71q0 -37 5.5 -71.5t17.5 -60.5q13 -26 32 -41.5t46 -15.5z" />
    <glyph glyph-name="beta" unicode="&#x3b2;" horiz-adv-x="611" 
d="M176 105v-265h-92v676q0 49 15 91.5t45 73.5q29 32 70 50.5t92 18.5q46 0 87 -13t71 -35q31 -24 48.5 -57.5t17.5 -74.5q-4 -74 -42.5 -110t-81.5 -49v-1q20 -4 50 -14t58 -33t47 -59.5t19 -89.5q0 -38 -15.5 -71.5t-45.5 -59.5q-30 -24 -75 -38.5t-104 -14.5
q-58 0 -103 26t-61 49zM341 105q72 0 108.5 32t36.5 79q0 43 -15.5 72.5t-41.5 46.5q-26 18 -59.5 26t-72.5 8h-53v74h20q38 0 69 5.5t54 19.5q24 13 38 36.5t14 60.5q0 49 -37 79.5t-97 30.5q-67 0 -98 -47t-31 -113v-264q4 -35 20 -62t38 -46q23 -19 50.5 -28.5t56.5 -9.5
z" />
    <glyph glyph-name="gamma" unicode="&#x3b3;" horiz-adv-x="476" 
d="M0 530h88l157 -388h2l139 388h88l-180 -494v-200h-92v207z" />
    <glyph glyph-name="delta" unicode="&#x3b4;" horiz-adv-x="524" 
d="M262 22q-110 0 -177 63t-67 185q0 52 16.5 98t48.5 80q31 35 76 55t90 20h6l-141 153v74h354v-77h-230l194 -211q34 -33 54 -81.5t20 -109.5q0 -116 -67.5 -182.5t-176.5 -66.5zM112 270q0 -38 10 -71t30 -57t48 -37.5t63 -13.5q34 0 61.5 14t46.5 38q18 24 28.5 57.5
t10.5 70.5q0 36 -10.5 69.5t-29.5 58.5t-47.5 40t-63.5 15q-73 0 -110 -52.5t-37 -131.5z" />
    <glyph glyph-name="epsilon" unicode="&#x3b5;" horiz-adv-x="458" 
d="M430 404h-88q0 32 -30 46t-74 14q-43 0 -71 -17.5t-28 -46.5q0 -40 26 -57.5t80 -17.5h53v-68h-53q-46 0 -79 -20.5t-33 -64.5q0 -40 30.5 -60.5t80.5 -20.5q49 0 75 17.5t26 44.5h93q0 -65 -56.5 -98t-139.5 -33q-44 0 -80.5 12t-63.5 31q-26 21 -40.5 47.5t-14.5 55.5
q0 36 12.5 59.5t30.5 38.5q18 14 34.5 18t26.5 6v2q-10 1 -25 7t-32 20q-16 13 -27 33.5t-11 48.5q0 31 16.5 55.5t43.5 41.5q27 18 61 26.5t69 8.5q88 0 138 -38.5t50 -90.5z" />
    <glyph glyph-name="zeta" unicode="&#x3b6;" horiz-adv-x="442" 
d="M158 -160v69h73q43 0 66.5 12t23.5 41q0 37 -15 52.5t-61 15.5q-42 0 -81.5 10.5t-69.5 33.5q-30 25 -47 64.5t-17 98.5v1q0 85 21 154t58 124q35 56 80 99t79 66h-238v69h363v-66q-46 -34 -93 -71t-87 -89q-40 -51 -65.5 -121t-25.5 -165v-4q0 -39 10.5 -64.5
t27.5 -42.5q17 -15 39.5 -21.5t48.5 -6.5q82 0 123.5 -39.5t41.5 -98.5q0 -32 -15.5 -55t-40.5 -38t-56.5 -21.5t-68.5 -6.5h-74z" />
    <glyph glyph-name="eta" unicode="&#x3b7;" horiz-adv-x="545" 
d="M69 30v500h82v-94h2q13 23 19.5 32t26.5 29q16 15 45.5 30t75.5 15q69 0 112 -40t46 -117v-547h-82v469q0 26 -1.5 53t-10.5 49q-8 22 -27 36t-55 17q-46 3 -86 -40.5t-57 -112.5q-4 -20 -6 -37t-2 -35v-207h-82z" />
    <glyph glyph-name="theta" unicode="&#x3b8;" horiz-adv-x="538" 
d="M269 19q-65 0 -110.5 29.5t-75.5 80.5q-28 49 -41 117t-13 145q0 72 13 139t42 117q29 51 75 82.5t110 31.5q63 0 109 -29.5t74 -80.5q30 -49 43.5 -116.5t13.5 -142.5q0 -73 -13.5 -140t-42.5 -119t-74.5 -83t-109.5 -31zM268 688q-36 0 -61.5 -19.5t-43.5 -55.5
q-17 -35 -27 -84.5t-11 -103.5h286q-2 51 -12 100t-28 85q-17 36 -43.5 57t-59.5 21zM269 92q33 0 58 19t43 54q18 34 28 83t13 101h-285q2 -48 12.5 -96.5t27.5 -84.5q18 -36 43.5 -56t59.5 -20z" />
    <glyph glyph-name="iota" unicode="&#x3b9;" horiz-adv-x="318" 
d="M170 530v-330q0 -23 1.5 -43t7.5 -35q8 -15 22.5 -23t41.5 -8q17 0 31 1.5t32 6.5v-73q-24 -4 -42.5 -4.5t-35.5 -0.5q-75 0 -112.5 32t-37.5 95v382h92z" />
    <glyph glyph-name="kappa" unicode="&#x3ba;" horiz-adv-x="483" 
d="M69 30v500h82v-180h2l194 180h110l-250 -235l279 -265h-118l-215 200h-2v-200h-82z" />
    <glyph glyph-name="lambda" unicode="&#x3bb;" horiz-adv-x="476" 
d="M208 530l-80 220h83l263 -720h-83l-139 381l-159 -381h-93z" />
    <glyph glyph-name="mu" unicode="&#x3bc;" horiz-adv-x="564" 
d="M420 30v94h-2q-15 -37 -58.5 -70.5t-128.5 -33.5q-49 0 -72 17v-200h-86v693h86v-315q0 -23 4.5 -44t15.5 -38t31 -27.5t52 -10.5q54 0 93.5 43t53.5 105q3 19 5 37t3 37v213h84v-500h-81z" />
    <glyph glyph-name="nu" unicode="&#x3bd;" horiz-adv-x="490" 
d="M215 30l-215 500h92l161 -382l149 382h86l-195 -500h-78z" />
    <glyph glyph-name="xi" unicode="&#x3be;" horiz-adv-x="442" 
d="M393 589v-69q-57 0 -104.5 -9t-84.5 -37q-37 -29 -59.5 -85t-22.5 -151v-1q0 -40 10.5 -66t27.5 -43q17 -16 39.5 -22.5t48.5 -6.5q82 0 123.5 -39.5t41.5 -98.5q0 -32 -15.5 -55t-40.5 -38t-56.5 -21.5t-68.5 -6.5h-74v69h73q43 0 66.5 12t23.5 41q0 37 -15 52.5
t-61 15.5q-42 0 -81.5 10.5t-69.5 33.5q-30 25 -47 64.5t-17 98.5v1q0 131 46.5 205t106.5 102q-38 12 -55.5 36.5t-17.5 52.5q0 23 12 44.5t43 36.5q32 16 85 25.5t142 9.5v-69q-100 0 -145 -8.5t-45 -38.5t42 -37.5t136 -7.5h13z" />
    <glyph glyph-name="omicron" unicode="&#x3bf;" horiz-adv-x="560" 
d="M279 22q-108 0 -176 68t-68 190q0 52 14.5 99.5t44.5 83.5q31 37 76 58.5t107 21.5q115 0 180.5 -72.5t65.5 -189.5q0 -116 -64.5 -187.5t-179.5 -71.5zM129 280q0 -38 8.5 -72.5t26.5 -60.5t47 -41t69 -15q39 0 66.5 15t45.5 41q18 27 26.5 61.5t8.5 72.5
q0 37 -8.5 71.5t-25.5 62.5q-19 27 -47.5 43t-69.5 16q-39 0 -67 -15.5t-45 -41.5q-18 -27 -26.5 -62t-8.5 -75z" />
    <glyph glyph-name="pi" unicode="&#x3c0;" horiz-adv-x="568" 
d="M121 30v431h-106v69h538v-69h-107v-431h-87v431h-151v-431h-87z" />
    <glyph glyph-name="rho" unicode="&#x3c1;" horiz-adv-x="535" 
d="M65 -160v402q0 99 23 159.5t57 91.5q36 33 76 43.5t74 10.5q44 0 81.5 -18t66.5 -53q28 -34 44.5 -83.5t16.5 -113.5q0 -49 -14 -94.5t-40 -81.5q-28 -35 -67.5 -56.5t-92.5 -21.5q-63 0 -95 25.5t-43 52.5h-2v-263h-85zM156 289q0 -30 7 -64t23 -64q16 -29 41 -47.5
t61 -18.5q31 0 54 14.5t38 40.5t23 59.5t8 70.5q0 40 -8.5 76t-23.5 63q-17 27 -40 42.5t-53 15.5q-54 0 -92 -44.5t-38 -143.5z" />
    <glyph glyph-name="sigma" unicode="&#x3c3;" horiz-adv-x="585" 
d="M279 29q-54 0 -99 18t-78 51q-31 34 -49 79t-18 100q0 54 14.5 99.5t44.5 79.5t75 53.5t107 20.5h297v-69h-118q28 -26 48 -75.5t20 -107.5q0 -55 -17 -100t-47 -79q-32 -33 -77.5 -51.5t-102.5 -18.5zM129 277q0 -34 8.5 -66.5t26.5 -57.5t47 -40t69 -15q39 0 66.5 15
t45.5 42q18 25 26.5 57.5t8.5 65.5q0 31 -8 63.5t-25 58.5t-44 42.5t-66 18.5h-8q-39 0 -67 -16t-45 -42q-18 -26 -26.5 -59.5t-8.5 -66.5z" />
    <glyph glyph-name="tau" unicode="&#x3c4;" horiz-adv-x="460" 
d="M187 30v431h-176v69h438v-69h-175v-431h-87z" />
    <glyph glyph-name="upsilon" unicode="&#x3c5;" horiz-adv-x="541" 
d="M66 219v314h85v-320q0 -57 36 -86.5t83 -29.5q55 0 94.5 33.5t48.5 93.5q5 31 2.5 68.5t-11.5 76.5t-23 76t-34 75l76 25q33 -62 58 -136.5t19 -166.5q-3 -42 -16.5 -81t-39.5 -70q-27 -32 -70 -50.5t-102 -18.5q-109 0 -157.5 56.5t-48.5 140.5z" />
    <glyph glyph-name="phi" unicode="&#x3c6;" horiz-adv-x="576" 
d="M324 25v-185h-91v186q-87 9 -142.5 71t-55.5 183q0 48 13 88t37 72q23 31 54.5 52.5t74.5 34.5v-85q-32 -12 -58.5 -47.5t-26.5 -114.5q0 -89 28.5 -133t75.5 -52v187q0 74 10 122.5t30 75.5q19 29 46 39.5t58 10.5q75 0 118.5 -60t43.5 -189q0 -123 -59.5 -185.5
t-155.5 -70.5zM443 281q0 98 -19 136t-48 38q-30 0 -41 -45.5t-11 -128.5v-186q47 8 83 52t36 134z" />
    <glyph glyph-name="chi" unicode="&#x3c7;" horiz-adv-x="560" 
d="M276 278l163 252h102l-214 -331l237 -366h-102l-186 287l-186 -287h-101l236 366l-214 331h101z" />
    <glyph glyph-name="psi" unicode="&#x3c8;" horiz-adv-x="674" 
d="M607 530v-228q0 -40 -11.5 -84.5t-37.5 -83.5q-26 -40 -69.5 -69.5t-101.5 -36.5v-188h-95v187q-62 5 -107 33.5t-71 67.5q-27 40 -37 86t-10 88v228h94v-225q0 -36 7.5 -69t23.5 -61q17 -27 43 -46t57 -24v425h95v-422q27 6 52 25t42 45q15 28 23.5 60t8.5 67v225h94z
" />
    <glyph glyph-name="omega" unicode="&#x3c9;" horiz-adv-x="765" 
d="M425 383v-169q0 -58 26.5 -87.5t72.5 -29.5q32 0 53.5 12.5t35.5 33.5q12 23 18 51t6 59q0 83 -25 146.5t-78 130.5h88q41 -51 71.5 -114.5t30.5 -143.5q0 -41 -6.5 -85t-27.5 -80q-21 -37 -60 -61t-104 -24q-56 0 -91.5 15t-52.5 36q-17 -21 -53 -36t-90 -15
q-65 0 -104.5 24t-60.5 61q-21 36 -27 80t-6 85q0 80 30 143.5t72 114.5h88q-54 -67 -78.5 -130.5t-24.5 -146.5q0 -31 5.5 -59t18.5 -51q13 -21 34.5 -33.5t54.5 -12.5q45 0 72 29.5t27 87.5v169h85z" />
    <glyph glyph-name="phi1" unicode="&#x3d5;" horiz-adv-x="940" 
d="M446 375l5.5 27.5t7.5 35.5q3 17 5.5 30l2.5 13l-11 0.5t-27 -2.5q-18 -4 -30 -7t-33 -16q-38 -31 -55 -69t-16 -86q0 -27 14.5 -50t32.5 -36q17 -13 32 -18.5t17 -5.5q0 1 6 18t14 43q9 26 18 58t17 65zM573 276q25 33 26 79.5t-27 78.5q-21 22 -43 31t-22 8
q-1 0 -4.5 -12.5t-8.5 -31.5t-11 -40.5t-11 -39.5q-6 -23 -13.5 -50.5t-14.5 -51.5q-6 -23 -10.5 -39.5l-4.5 -16.5l13.5 0.5t33.5 7.5q21 8 46 25.5t51 51.5zM513 498q1 0 11 -3.5t23 -8.5q14 -6 27.5 -16.5t21.5 -20.5q14 -20 23.5 -43.5t12.5 -53.5q2 -44 -14 -80.5
t-39 -59.5q-27 -26 -56 -41.5t-53 -23.5t-40.5 -10t-17.5 -2q-1 -2 -5.5 -14t-10.5 -30t-11.5 -40.5t-7.5 -45.5q-7 -54 -22 -69.5t-33 -9.5q-15 4 -19 12.5t-1 20.5t10.5 27t17.5 32q25 47 35 82t10 36q-3 0 -22.5 4t-43.5 18t-46.5 42t-30.5 77q-5 28 4.5 61t31.5 63
q21 30 53 54.5t71 37.5q18 5 33 7.5t26 3.5t17.5 1h7.5q0 1 7.5 39.5t22.5 138.5q2 16 7 34.5t12 33.5q8 15 19 23t27 3q21 -8 24.5 -21t-2.5 -33q-7 -19 -19 -44.5t-22 -56.5q-8 -23 -15 -45t-12 -39q-6 -18 -9 -29z" />
    <glyph glyph-name="afii10023" unicode="&#x401;" horiz-adv-x="525" 
d="M84 30v720h395v-77h-303v-228h291v-76h-291v-262h312v-77h-404zM125 899h114v-109h-114v109zM339 899h114v-109h-114v109z" />
    <glyph glyph-name="afii10017" unicode="&#x410;" horiz-adv-x="615" 
d="M2 30l252 720h103l254 -720h-101l-75 220h-265l-78 -220h-90zM301 646l-106 -320h215l-107 320h-2z" />
    <glyph glyph-name="afii10018" unicode="&#x411;" horiz-adv-x="589" 
d="M83 750h397v-77h-305v-230h96q137 0 212.5 -52t75.5 -157q0 -82 -45.5 -129.5t-112.5 -65.5q-22 -5 -48.5 -7t-47.5 -2h-222v720zM175 369v-264h116q74 0 122 28t52 103q-1 35 -16 60.5t-38 40.5q-23 17 -52.5 24.5t-59.5 7.5h-124z" />
    <glyph glyph-name="afii10019" unicode="&#x412;" horiz-adv-x="590" 
d="M83 30v720h222q41 0 80.5 -9.5t70.5 -30.5q32 -22 51.5 -56.5t21.5 -83.5q0 -32 -10 -56.5t-24 -43.5q-37 -48 -88 -59v-1q13 -3 38 -10.5t51 -26.5q26 -20 44.5 -53.5t18.5 -85.5q0 -82 -45.5 -129.5t-112.5 -65.5q-22 -5 -48.5 -7t-47.5 -2h-222zM175 675v-232h93h21.5
t28.5 2q18 1 39 7t39 21q18 14 30 36t12 56q0 52 -31.5 76t-74.5 31q-12 1 -27.5 2t-26.5 1h-103zM175 369v-264h116h21t28 2q18 2 39.5 8.5t40.5 21.5q18 14 30.5 37.5t14.5 61.5q0 44 -23.5 76.5t-73.5 47.5q-14 4 -34.5 6.5t-34.5 2.5h-124z" />
    <glyph glyph-name="afii10020" unicode="&#x413;" horiz-adv-x="490" 
d="M84 30v720h396v-77h-304v-643h-92z" />
    <glyph glyph-name="afii10021" unicode="&#x414;" horiz-adv-x="685" 
d="M22 -66v172h75q42 141 60 305.5t18 338.5h407v-644h81v-172h-93v96h-455v-96h-93zM190 106h299v568h-222q-3 -160 -22.5 -304t-54.5 -264z" />
    <glyph glyph-name="afii10022" unicode="&#x415;" horiz-adv-x="525" 
d="M84 30v720h395v-77h-303v-228h291v-76h-291v-262h312v-77h-404z" />
    <glyph glyph-name="afii10024" unicode="&#x416;" horiz-adv-x="850" 
d="M379 443v307h91v-307h1l233 307h107l-261 -338l303 -382h-118l-264 337h-1v-337h-91v337h-1l-264 -337h-118l303 382l-261 338h107l233 -307h1z" />
    <glyph glyph-name="afii10025" unicode="&#x417;" horiz-adv-x="540" 
d="M131 601h-90q0 26 14 52t43 49q27 22 69.5 37.5t98.5 15.5q43 0 84 -13t72 -36q32 -25 51.5 -60t19.5 -80q0 -36 -12 -64t-29 -50q-18 -21 -34.5 -31.5t-30.5 -12.5v-2q14 -4 32.5 -12.5t39.5 -29.5q19 -22 33 -54.5t14 -80.5q0 -44 -16 -82.5t-47 -65.5
q-30 -29 -75 -45.5t-102 -16.5t-99.5 12.5t-72.5 33.5q-29 21 -45.5 48.5t-20.5 62.5h100q0 -16 9 -30.5t26 -26.5q17 -14 41.5 -22.5t57.5 -8.5q70 0 109.5 40.5t39.5 105.5q0 38 -13.5 63.5t-34.5 41.5t-48.5 23.5t-54.5 9.5h-79v68h79q68 3 105.5 30.5t37.5 94.5
q0 55 -37.5 88t-94.5 33q-61 0 -98 -26.5t-42 -58.5z" />
    <glyph glyph-name="afii10026" unicode="&#x418;" horiz-adv-x="670" 
d="M588 750v-720h-89v581h-1l-303 -581h-113v720h89v-584h1l303 584h113z" />
    <glyph glyph-name="afii10027" unicode="&#x419;" horiz-adv-x="696" 
d="M513 904v-70q-33 -32 -73 -53.5t-86 -21.5q-44 0 -86 22.5t-74 52.5v70q45 -36 82.5 -56.5t77.5 -20.5q38 0 76 20.5t83 56.5zM588 750v-720h-89v581h-1l-303 -581h-113v720h89v-584h1l303 584h113z" />
    <glyph glyph-name="afii10028" unicode="&#x41a;" horiz-adv-x="590" 
d="M82 30v720h91v-309h1l273 309h108l-302 -338l344 -382h-119l-304 339h-1v-339h-91z" />
    <glyph glyph-name="afii10029" unicode="&#x41b;" horiz-adv-x="720" 
d="M286 674v-485q0 -28 -7.5 -58t-28.5 -55q-22 -25 -60.5 -41t-99.5 -16q-30 0 -47 2.5t-43 9.5v84q24 -9 46.5 -14t48.5 -6q51 0 74.5 28t23.5 77v550h446v-720h-93v644h-260z" />
    <glyph glyph-name="afii10030" unicode="&#x41c;" horiz-adv-x="840" 
d="M80 30v720h130l209 -599h1l207 599h130v-720h-84v595h-1l-210 -595h-87l-210 595h-1v-595h-84z" />
    <glyph glyph-name="afii10031" unicode="&#x41d;" horiz-adv-x="660" 
d="M82 30v720h93v-308h311v308h93v-720h-93v336h-311v-336h-93z" />
    <glyph glyph-name="afii10032" unicode="&#x41e;" horiz-adv-x="730" 
d="M364 19q-80 0 -141 29t-102 80q-41 50 -61.5 117.5t-20.5 145.5q0 73 20.5 139.5t61.5 117.5t102 82t141 31q81 0 141.5 -29t101.5 -80q40 -50 61 -117t21 -143q0 -74 -18.5 -141t-58.5 -119t-101.5 -82.5t-146.5 -30.5zM135 392q0 -59 14.5 -113.5t43.5 -96.5
q28 -42 71 -66t100 -24t99.5 23t71.5 63q28 40 42.5 95.5t14.5 119.5q0 59 -14.5 113.5t-43.5 94.5t-71.5 63.5t-99.5 23.5q-51 -1 -93.5 -23.5t-71.5 -61.5q-31 -39 -47 -93.5t-16 -117.5z" />
    <glyph glyph-name="afii10033" unicode="&#x41f;" horiz-adv-x="660" 
d="M175 674v-644h-93v720h497v-720h-93v644h-311z" />
    <glyph glyph-name="afii10034" unicode="&#x420;" horiz-adv-x="560" 
d="M199 327v79h65q34 0 64.5 6.5t53.5 21.5q24 16 39 42t15 67q0 36 -16 61t-40 40q-25 14 -56 21.5t-61 7.5h-98v-643h-90v720h187q49 0 97 -9.5t85 -33.5q40 -24 64 -64t24 -100q0 -62 -24 -103.5t-62 -66.5q-38 -26 -85 -36t-95 -10h-67z" />
    <glyph glyph-name="afii10035" unicode="&#x421;" horiz-adv-x="640" 
d="M584 159v-96q-13 -5 -29.5 -12.5t-41.5 -14.5q-27 -7 -62.5 -12t-81.5 -5q-87 0 -149.5 34t-102.5 89q-41 55 -59.5 123.5t-18.5 137.5t19.5 133t60.5 114t102 80.5t143 30.5q76 0 137.5 -33t91.5 -93q10 -19 13.5 -43.5t4.5 -45.5h-98q0 33 -9 56t-26 43q-18 20 -51 30
t-63 11q-48 0 -89 -19t-72 -56q-32 -36 -49.5 -89.5t-17.5 -121.5q0 -38 9.5 -90t36.5 -100q28 -47 77 -81t129 -35q49 -1 92 9.5t66 27.5q7 4 15 10t23 18z" />
    <glyph glyph-name="afii10036" unicode="&#x422;" horiz-adv-x="530" 
d="M218 30v643h-211v77h514v-77h-211v-643h-92z" />
    <glyph glyph-name="afii10037" unicode="&#x423;" horiz-adv-x="550" 
d="M280 375l174 375h98l-334 -720h-99l111 241l-233 479h93z" />
    <glyph glyph-name="afii10038" unicode="&#x424;" horiz-adv-x="750" 
d="M321 657v93h95v-92q64 -5 119 -29t93 -60q39 -36 60 -82t21 -95q0 -50 -21 -97t-60 -83q-38 -38 -93 -62.5t-119 -29.5v-90h-95v92q-62 5 -115.5 30t-90.5 62q-37 36 -56.5 82t-19.5 95t19.5 94t56.5 81t90.5 60.5t115.5 30.5zM612 393q0 78 -56 130.5t-140 61.5v-390
q85 8 140.5 63.5t55.5 134.5zM135 392q0 -78 52.5 -131.5t133.5 -64.5v388q-82 -11 -134 -63t-52 -129z" />
    <glyph glyph-name="afii10039" unicode="&#x425;" horiz-adv-x="578" 
d="M1 30l237 377l-215 343h102l164 -261l162 261h102l-214 -343l237 -377h-102l-185 294l-186 -294h-102z" />
    <glyph glyph-name="afii10040" unicode="&#x426;" horiz-adv-x="682" 
d="M579 750v-644h81v-172h-93v96h-485v720h93v-644h311v644h93z" />
    <glyph glyph-name="afii10041" unicode="&#x427;" horiz-adv-x="635" 
d="M568 750v-720h-94v320h-1q-7 -17 -23 -35t-32 -29q-27 -20 -64 -33.5t-84 -13.5q-41 0 -78.5 12t-64.5 37q-28 23 -44 58t-16 80v324h96v-289q0 -64 27.5 -106t93.5 -42q58 0 109.5 36.5t71.5 107.5q4 18 6.5 36t2.5 37v220h94z" />
    <glyph glyph-name="afii10042" unicode="&#x428;" horiz-adv-x="840" 
d="M374 106v644h93v-644h197v644h93v-720h-677v720h93v-644h201z" />
    <glyph glyph-name="afii10043" unicode="&#x429;" horiz-adv-x="860" 
d="M374 106v644h93v-644h197v644h93v-644h81v-172h-93v96h-665v720h93v-644h201z" />
    <glyph glyph-name="afii10044" unicode="&#x42a;" horiz-adv-x="744" 
d="M327 463h96q137 0 212.5 -57t75.5 -162q0 -82 -45 -134.5t-113 -70.5q-22 -5 -48.5 -7t-47.5 -2h-222v643h-225v77h317v-287zM327 389v-284h116q74 0 122 32.5t52 108.5q-1 35 -16 62t-38 44q-23 19 -52.5 28t-59.5 9h-124z" />
    <glyph glyph-name="afii10045" unicode="&#x42b;" horiz-adv-x="830" 
d="M175 463h96q137 0 212.5 -57t75.5 -162q0 -82 -45 -134.5t-113 -70.5q-22 -5 -48.5 -7t-47.5 -2h-222v720h92v-287zM175 389v-284h116q74 0 122 32.5t52 108.5q-1 35 -16 62t-38 44q-23 19 -52.5 28t-59.5 9h-124zM641 30v720h95v-720h-95z" />
    <glyph glyph-name="afii10046" unicode="&#x42c;" horiz-adv-x="592" 
d="M175 463h96q137 0 212.5 -57t75.5 -162q0 -82 -45 -134.5t-113 -70.5q-22 -5 -48.5 -7t-47.5 -2h-222v720h92v-287zM175 389v-284h116q74 0 123.5 32.5t50.5 108.5q0 35 -14.5 62t-38.5 44q-24 19 -53.5 28t-59.5 9h-124z" />
    <glyph glyph-name="afii10047" unicode="&#x42d;" horiz-adv-x="640" 
d="M500 349h-346v76h349q-3 58 -22.5 108t-49.5 84q-31 33 -71 51t-84 18q-31 -1 -64 -11t-50 -30q-18 -20 -26.5 -43t-8.5 -56h-98q0 21 4 45.5t13 43.5q30 60 91.5 93t138.5 33q81 0 142 -30.5t102 -80.5q40 -50 60.5 -114t20.5 -133t-19 -137.5t-60 -123.5t-103 -89
t-148 -34q-48 0 -83.5 5t-60.5 12q-26 7 -42.5 14.5t-28.5 12.5v98q14 -15 21.5 -20.5t15.5 -9.5q23 -17 66 -27.5t93 -9.5q68 1 113.5 27t74.5 64q29 39 42.5 84.5t17.5 79.5z" />
    <glyph glyph-name="afii10048" unicode="&#x42e;" horiz-adv-x="900" 
d="M560 19q-69 0 -122.5 27t-91.5 75t-58 111.5t-22 133.5h-85v-336h-94v720h94v-308h87q5 60 26.5 118.5t58.5 103.5q38 44 89.5 70.5t117.5 26.5q70 0 125 -29t93 -80q38 -50 57 -117t19 -143q0 -74 -19 -141t-57 -119t-93 -82.5t-125 -30.5zM360 392q0 -59 15 -113.5
t41 -97.5q27 -41 63 -65t81 -24q44 0 80 22.5t63 62.5q25 41 40.5 96.5t15.5 119.5q0 59 -15.5 113t-40.5 95q-27 40 -63.5 63.5t-80.5 23.5q-45 0 -81.5 -22t-62.5 -61q-26 -41 -40.5 -95.5t-14.5 -117.5z" />
    <glyph glyph-name="afii10049" unicode="&#x42f;" horiz-adv-x="590" 
d="M382 416v-79h-61h-19t-17 -1q-100 -16 -122 -158l-27 -148h-102l38 182q12 61 39.5 99.5t54.5 52.5q-45 18 -80.5 63.5t-35.5 120.5q0 61 22 100.5t59 61.5q36 23 82.5 31.5t95.5 8.5h198v-720h-90v643h-108q-31 0 -60.5 -6.5t-51.5 -20.5q-23 -14 -36.5 -38t-13.5 -60
q0 -41 15 -66.5t39 -39.5q24 -15 55.5 -20.5t66.5 -5.5h59z" />
    <glyph glyph-name="afii10065" unicode="&#x430;" horiz-adv-x="510" 
d="M354 30v52h-1q-3 -4 -15 -14.5t-29 -18.5q-22 -13 -53 -21.5t-69 -8.5q-27 0 -53 9t-46 27q-20 17 -32.5 42t-12.5 56q0 56 34.5 97.5t84.5 56.5q30 9 60.5 13t58.5 5q26 1 46.5 0.5t26.5 -0.5v44q0 11 -3 29t-13 34q-11 17 -31 28.5t-55 11.5q-46 0 -70.5 -20.5
t-24.5 -59.5h-101q0 31 12 56.5t37 45.5q24 21 61 34t86 13q98 0 144 -49t46 -119v-343h-88zM354 218v46q-20 1 -53 0.5t-69 -8.5q-16 -4 -33 -11t-31 -19q-14 -11 -22.5 -27t-8.5 -36q0 -43 26.5 -59.5t59.5 -15.5q14 0 31.5 5.5t34.5 16.5q18 10 33 25t23 32q5 11 7 24
t2 27z" />
    <glyph glyph-name="afii10066" unicode="&#x431;" horiz-adv-x="551" 
d="M315 574q-39 -12 -66.5 -25t-43.5 -28q10 4 26 8t42 4q55 0 100 -20.5t77 -56.5q30 -36 47 -83t17 -102t-17 -100.5t-47 -78.5q-31 -34 -75.5 -52t-99.5 -18t-100 18t-76 51q-32 33 -48 78.5t-16 100.5v10q0 151 62 241t174 122q22 6 42.5 13t35.5 19q15 11 24 27.5
t9 47.5h96q0 -79 -39 -114.5t-124 -61.5zM129 270q0 -35 9 -67.5t27 -57.5q18 -24 46 -39t65 -15t63.5 14.5t44.5 40.5q17 26 25.5 58.5t8.5 66.5q0 33 -9 68t-26 63q-18 28 -45.5 45t-65.5 17q-39 0 -66 -17t-44 -45t-25 -62.5t-8 -69.5z" />
    <glyph glyph-name="afii10067" unicode="&#x432;" horiz-adv-x="514" 
d="M83 30v500h193q70 0 122 -31.5t52 -94.5q-3 -48 -32.5 -74t-66.5 -35v-2q13 -1 33 -6t40 -19q20 -15 33.5 -38.5t13.5 -57.5q0 -37 -17 -64t-44 -45q-27 -17 -62 -25t-72 -8h-193zM168 461v-136h83q47 0 81 15.5t34 59.5q0 37 -32.5 49t-75.5 12h-90zM168 257v-158h99
q54 0 85.5 18t31.5 57q0 46 -32 64.5t-80 18.5h-104z" />
    <glyph glyph-name="afii10068" unicode="&#x433;" horiz-adv-x="408" 
d="M59 30v500h348v-68h-260v-432h-88z" />
    <glyph glyph-name="afii10069" unicode="&#x434;" horiz-adv-x="537" 
d="M446 530v-431h69v-137h-81v68h-331v-68h-81v137h69q25 104 37.5 210.5t12.5 220.5h305zM175 99h189v362h-141q-3 -91 -15 -184t-33 -178z" />
    <glyph glyph-name="afii10070" unicode="&#x435;" horiz-adv-x="525" 
d="M474 109v-66q-34 -11 -67.5 -16t-68.5 -5q-67 0 -126.5 17t-94.5 52q-33 33 -55.5 84.5t-22.5 118.5q0 110 65 180t183 70q53 0 95.5 -22.5t69.5 -62.5q22 -33 30 -76t8 -79v-33h-358q4 -38 25.5 -83.5t77.5 -76.5q17 -9 55.5 -14.5t69.5 -5.5q12 0 42.5 3t71.5 15z
M376 425q-18 24 -40.5 37t-52.5 13q-61 0 -103 -37t-48 -99h263q0 16 -3 41t-16 45z" />
    <glyph glyph-name="afii10072" unicode="&#x436;" horiz-adv-x="646" 
d="M282 351v179h82v-179h1l155 179h109l-210 -235l239 -265h-117l-176 199h-1v-199h-82v199h-1l-176 -199h-117l238 265l-209 235h109l154 -179h2z" />
    <glyph glyph-name="afii10073" unicode="&#x437;" horiz-adv-x="458" 
d="M116 404h-88q0 52 49.5 90.5t138.5 38.5q34 0 68 -8.5t61 -26.5q26 -17 43.5 -41.5t17.5 -55.5q0 -28 -11.5 -48.5t-27.5 -33.5q-16 -15 -29.5 -20.5t-22.5 -6.5v-1q9 -2 23.5 -6.5t32.5 -18.5q18 -15 31 -38.5t13 -59.5q0 -29 -15 -55.5t-41 -47.5q-27 -19 -63.5 -31
t-79.5 -12q-83 0 -139.5 33t-56.5 98h93q0 -27 26 -44.5t75 -17.5t80 20.5t31 60.5q0 43 -33.5 64t-78.5 21h-53v68h53q53 0 79.5 17.5t26.5 57.5q0 29 -28 46.5t-72 17.5q-45 0 -74 -14t-29 -46z" />
    <glyph glyph-name="afii10074" unicode="&#x438;" horiz-adv-x="505" 
d="M446 530v-500h-82v369h-1l-206 -369h-98v500h82v-370h1l206 370h98z" />
    <glyph glyph-name="afii10075" unicode="&#x439;" horiz-adv-x="505" 
d="M433 704v-70q-33 -32 -73 -53.5t-86 -21.5q-44 0 -86 22.5t-74 52.5v70q45 -36 82.5 -56.5t77.5 -20.5q38 0 76 20.5t83 56.5zM446 530v-500h-82v369h-1l-206 -369h-98v500h82v-370h1l206 370h98z" />
    <glyph glyph-name="afii10076" unicode="&#x43a;" horiz-adv-x="468" 
d="M59 30v500h82v-179h2l194 179h110l-250 -235l279 -265h-118l-215 199h-2v-199h-82z" />
    <glyph glyph-name="afii10077" unicode="&#x43b;" horiz-adv-x="533" 
d="M216 461v-321q0 -19 -5.5 -40t-20.5 -38q-16 -18 -46 -29t-79 -11q-21 0 -34.5 2.5t-29.5 6.5v75q19 -8 34.5 -11.5t32.5 -3.5q35 0 50.5 19t15.5 52v368h340v-500h-82v431h-176z" />
    <glyph glyph-name="afii10078" unicode="&#x43c;" horiz-adv-x="629" 
d="M59 30v500h123l132 -362h1l133 362h122v-500h-82v374h-1l-141 -374h-63l-141 374h-1v-374h-82z" />
    <glyph glyph-name="afii10079" unicode="&#x43d;" horiz-adv-x="505" 
d="M59 30v500h82v-206h223v206h82v-500h-82v225h-223v-225h-82z" />
    <glyph glyph-name="afii10080" unicode="&#x43e;" horiz-adv-x="560" 
d="M279 22q-108 0 -176 68t-68 190q0 52 14.5 99.5t44.5 83.5q31 37 76 58.5t107 21.5q115 0 180.5 -72.5t65.5 -189.5q0 -116 -64.5 -187.5t-179.5 -71.5zM129 280q0 -38 8.5 -72.5t26.5 -60.5t47 -41t69 -15q39 0 66.5 15t45.5 41q18 27 26.5 61.5t8.5 72.5
q0 37 -8.5 71.5t-25.5 62.5q-19 27 -47.5 43t-69.5 16q-39 0 -67 -15.5t-45 -41.5q-18 -27 -26.5 -62t-8.5 -75z" />
    <glyph glyph-name="afii10081" unicode="&#x43f;" horiz-adv-x="505" 
d="M141 461v-431h-82v500h387v-500h-82v431h-223z" />
    <glyph glyph-name="afii10082" unicode="&#x440;" horiz-adv-x="535" 
d="M65 -173v703h85v-77h1q5 14 12.5 26t27.5 28q18 15 44 25.5t60 10.5q44 0 81.5 -18t66.5 -53q28 -34 44.5 -83.5t16.5 -113.5q0 -49 -14 -94.5t-40 -81.5q-28 -35 -67.5 -56.5t-92.5 -21.5q-63 0 -95 27.5t-44 57.5h-1v-279h-85zM156 285q0 -30 7 -64t23 -64
q16 -29 41 -47.5t61 -18.5q31 0 54 14.5t38 40.5t23 59.5t8 70.5q0 40 -8.5 76t-23.5 63q-17 27 -40 42.5t-53 15.5q-54 0 -92 -51t-38 -137z" />
    <glyph glyph-name="afii10083" unicode="&#x441;" horiz-adv-x="510" 
d="M474 109v-66q-34 -11 -67.5 -16t-68.5 -5q-67 0 -126.5 17t-94.5 52q-33 33 -55.5 84.5t-22.5 118.5q0 110 65 180t183 70q49 0 91.5 -12.5t73.5 -43.5q18 -21 28 -48t10 -67h-96q0 23 -3.5 40.5t-14.5 31.5q-8 12 -36.5 21t-55.5 9q-66 0 -109.5 -43.5t-43.5 -122.5
q0 -24 3.5 -51t15.5 -53q10 -27 30.5 -51t54.5 -43q17 -9 55.5 -14.5t69.5 -5.5q12 0 42.5 3t71.5 15z" />
    <glyph glyph-name="afii10084" unicode="&#x442;" horiz-adv-x="460" 
d="M187 30v431h-176v69h438v-69h-175v-431h-87z" />
    <glyph glyph-name="afii10085" unicode="&#x443;" horiz-adv-x="470" 
d="M128 -168l75 204l-205 495h87l157 -382h1l140 382h88l-255 -699h-88z" />
    <glyph glyph-name="afii10086" unicode="&#x444;" horiz-adv-x="840" 
d="M588 22q-50 0 -84.5 20.5t-41.5 35.5v-269h-85v270q-9 -17 -42.5 -37t-82.5 -20q-107 0 -163 72t-56 187q0 116 56.5 189t164.5 73q49 0 82 -24t41 -40v271h85v-272q7 15 40.5 40t82.5 25q109 0 165.5 -73t56.5 -189q0 -115 -56.5 -187t-162.5 -72zM377 280v8
q-1 37 -9.5 71t-22.5 61q-16 25 -38.5 39.5t-51.5 14.5q-35 0 -58.5 -16t-39.5 -43q-15 -27 -21.5 -62t-6.5 -72q0 -38 6.5 -72.5t21.5 -61.5q15 -26 38 -41t56 -15q29 0 52 14.5t40 40.5q16 27 25 61.5t9 72.5zM463 280q0 -38 8.5 -72.5t24.5 -61.5q17 -26 40 -40.5
t53 -14.5q32 0 55 15t37 41q16 27 23 61.5t7 72.5q0 37 -7 71.5t-22 62.5q-16 27 -39.5 43t-57.5 16q-31 0 -53.5 -15.5t-38.5 -41.5q-15 -27 -22.5 -62t-7.5 -75z" />
    <glyph glyph-name="afii10087" unicode="&#x445;" horiz-adv-x="480" 
d="M0 30l191 262l-171 238h99l123 -167l123 167h99l-173 -238l190 -262h-98l-141 193l-144 -193h-98z" />
    <glyph glyph-name="afii10088" unicode="&#x446;" horiz-adv-x="528" 
d="M446 530v-431h70v-135h-82v66h-375v500h82v-431h223v431h82z" />
    <glyph glyph-name="afii10089" unicode="&#x447;" horiz-adv-x="523" 
d="M464 530v-500h-82v219h-1q-3 -7 -11.5 -17.5t-28.5 -25.5q-21 -13 -48.5 -22.5t-60.5 -9.5q-29 0 -58 10t-53 29q-24 20 -39 48t-15 64v205h82v-181q0 -54 24 -78t69 -24q40 0 80 25t54 74q3 12 4.5 24t1.5 26v134h82z" />
    <glyph glyph-name="afii10090" unicode="&#x448;" horiz-adv-x="629" 
d="M278 99v431h82v-431h128v431h82v-500h-511v500h82v-431h137z" />
    <glyph glyph-name="afii10091" unicode="&#x449;" horiz-adv-x="650" 
d="M570 530v-431h70v-135h-82v66h-499v500h82v-431h137v431h82v-431h128v431h82z" />
    <glyph glyph-name="afii10092" unicode="&#x44a;" horiz-adv-x="585" 
d="M232 328h106q94 0 154 -38.5t60 -112.5q0 -57 -39.5 -92.5t-85.5 -48.5q-16 -3 -34 -4.5t-33 -1.5h-210v431h-149v69h231v-202zM232 260v-161h119q50 0 82.5 14.5t35.5 65.5q-1 24 -11.5 39.5t-25.5 24.5q-16 8 -36 12.5t-40 4.5h-124z" />
    <glyph glyph-name="afii10093" unicode="&#x44b;" horiz-adv-x="655" 
d="M508 30v500h88v-500h-88zM141 328h106q94 0 154 -38.5t60 -112.5q0 -57 -39.5 -92.5t-85.5 -48.5q-16 -3 -34 -4.5t-33 -1.5h-210v500h82v-202zM141 260v-161h119q50 0 82.5 14.5t35.5 65.5q-1 24 -11.5 39.5t-25.5 24.5q-16 8 -36 12.5t-40 4.5h-124z" />
    <glyph glyph-name="afii10094" unicode="&#x44c;" horiz-adv-x="504" 
d="M151 328h106q94 0 154 -38.5t60 -112.5q-3 -109 -125 -141q-16 -3 -34 -4.5t-33 -1.5h-210v500h82v-202zM151 260v-161h118q119 0 119 80q-1 24 -11.5 39.5t-25.5 24.5q-16 8 -36 12.5t-40 4.5h-124z" />
    <glyph glyph-name="afii10095" unicode="&#x44d;" horiz-adv-x="510" 
d="M36 43v66q40 -12 71 -15t43 -3q29 0 68.5 5.5t56.5 14.5q49 27 71 66.5t28 73.5h-225v68h230q-2 71 -45.5 113.5t-107.5 42.5q-110 0 -110 -102h-96q1 74 38 115q50 55 165 56q117 0 182.5 -70t65.5 -180q-1 -67 -23 -118.5t-56 -84.5q-36 -35 -94.5 -52t-125.5 -17
q-37 0 -70.5 5t-65.5 16z" />
    <glyph glyph-name="afii10096" unicode="&#x44e;" horiz-adv-x="690" 
d="M429 22q-92 0 -153.5 60t-68.5 165h-67v-217h-81v500h81v-214h67q4 42 21.5 84t45.5 74q29 31 67.5 50t85.5 19q49 0 90.5 -19t72.5 -54q29 -35 45.5 -83t16.5 -106t-16.5 -105.5t-46.5 -81.5q-30 -35 -71.5 -53.5t-88.5 -18.5zM298 280q0 -38 9.5 -72.5t26.5 -61.5
q17 -26 41 -40.5t55 -14.5q30 0 53 15t40 41q16 27 25.5 62t9.5 72q0 36 -9.5 71t-25.5 62q-17 28 -41 44t-56 16q-33 0 -56.5 -15.5t-39.5 -41.5q-16 -27 -24 -62t-8 -75z" />
    <glyph glyph-name="afii10097" unicode="&#x44f;" horiz-adv-x="495" 
d="M333 306v-71q-9 0 -42 -1q-68 -3 -99 -25.5t-40 -75.5l-19 -103h-92l27 127q8 43 33 67.5t42 32.5q-31 12 -61 45t-30 87q0 42 17.5 70t48.5 43q29 16 65.5 22t74.5 6h178v-500h-82v431h-96q-22 0 -43 -2.5t-38 -9.5q-17 -8 -26.5 -22t-9.5 -38q0 -28 9.5 -44t26.5 -25
q17 -8 38 -11t46 -3h72z" />
    <glyph glyph-name="afii10071" unicode="&#x451;" horiz-adv-x="525" 
d="M474 109v-66q-34 -11 -67.5 -16t-68.5 -5q-67 0 -126.5 17t-94.5 52q-33 33 -55.5 84.5t-22.5 118.5q0 110 65 180t183 70q53 0 95.5 -22.5t69.5 -62.5q22 -33 30 -76t8 -79v-33h-358q4 -38 25.5 -83.5t77.5 -76.5q17 -9 55.5 -14.5t69.5 -5.5q12 0 42.5 3t71.5 15z
M376 425q-18 24 -40.5 37t-52.5 13q-61 0 -103 -37t-48 -99h263q0 16 -3 41t-16 45zM110 679h114v-109h-114v109zM324 679h114v-109h-114v109z" />
    <glyph glyph-name="endash" unicode="&#x2013;" horiz-adv-x="408" 
d="M361 395v-74h-314v74h314z" />
    <glyph glyph-name="emdash" unicode="&#x2014;" horiz-adv-x="940" 
d="M930 395v-74h-921v74h921z" />
    <glyph glyph-name="afii00208" unicode="&#x2015;" horiz-adv-x="940" 
d="M926 400v-84h-913v84h913z" />
    <glyph glyph-name="uni2016" unicode="&#x2016;" horiz-adv-x="940" 
d="M524 789h58v-873h-58v873zM332 789h58v-873h-58v873z" />
    <glyph glyph-name="quoteleft" unicode="&#x2018;" horiz-adv-x="240" 
d="M58 691q0 18 3 44t13 42t26 28.5t41 26.5l43 -51q-62 -17 -58 -62h52v-115h-120v87z" />
    <glyph glyph-name="quoteright" unicode="&#x2019;" horiz-adv-x="240" 
d="M179 732q0 -19 -4 -44.5t-14 -41.5q-11 -17 -27 -29.5t-41 -25.5l-43 50q65 20 61 65h-52v115h120v-89z" />
    <glyph glyph-name="quotereversed" unicode="&#x201b;" horiz-adv-x="221" 
d="M166 787v-111h-54q3 -55 55 -69l-29 -46q-11 3 -28 14.5t-31 32.5q-15 21 -19.5 41.5t-4.5 56.5v81h111z" />
    <glyph glyph-name="quotedblleft" unicode="&#x201c;" horiz-adv-x="412" 
d="M79 691q0 18 3 44t13 42t26 28.5t41 26.5l43 -51q-60 -15 -58 -62h52v-115h-120v87zM219 691q0 18 3 44t13 42t26 28.5t41 26.5l43 -51q-62 -17 -58 -62h52v-115h-120v87z" />
    <glyph glyph-name="quotedblright" unicode="&#x201d;" horiz-adv-x="412" 
d="M338 732q0 -19 -4 -44.5t-14 -41.5q-11 -17 -27 -29.5t-41 -25.5l-43 50q65 19 61 65h-52v115h120v-89zM198 732q0 -19 -4 -44.5t-14 -41.5q-11 -17 -27 -29.5t-41 -25.5l-43 50q66 20 61 65h-52v115h120v-89z" />
    <glyph glyph-name="uni201F" unicode="&#x201f;" horiz-adv-x="396" 
d="M327 787v-111h-54q3 -56 55 -69l-29 -46q-11 3 -28 14.5t-31 32.5q-15 21 -19.5 41.5t-4.5 56.5v81h111zM179 787v-111h-53q3 -56 55 -69l-29 -46q-11 3 -28 14.5t-31 32.5q-15 21 -19.5 41.5t-4.5 56.5v81h110z" />
    <glyph glyph-name="dagger" unicode="&#x2020;" horiz-adv-x="940" 
d="M488 603q3 0 27 4t46 10q17 5 37 6t37 -3q17 -5 29 -16.5t12 -31.5q0 -18 -12 -28.5t-30 -13.5q-16 -4 -36 -2.5t-37 6.5q-22 6 -46 10.5t-26 4.5q0 -13 3.5 -34.5t14.5 -35.5l7 -23t-5 -53q-12 -28 -16.5 -91t-4.5 -132q-1 -69 -0.5 -130.5t-1.5 -86.5q-5 -50 -27.5 -50
t-25.5 50q-3 25 -2 86.5t0 130.5t-5 132t-16 91q-12 29 -9 48t11 29q10 13 15 35.5t5 33.5q-4 0 -28.5 -4.5t-45.5 -10.5q-18 -5 -38 -6.5t-36 3.5q-18 5 -29 17t-11 33q0 17 11.5 27t28.5 13q16 4 36 2.5t38 -6.5q20 -6 44 -10t29 -4q0 5 -4.5 34t-10.5 50q-5 16 -6 37
t3 40q5 19 17 32.5t34 13.5q18 0 28 -13.5t13 -32.5q4 -19 2.5 -40t-6.5 -37q-6 -21 -9.5 -50.5t-3.5 -33.5z" />
    <glyph glyph-name="daggerdbl" unicode="&#x2021;" horiz-adv-x="940" 
d="M431 559q-3 0 -27 -5t-44 -10q-18 -5 -37.5 -6t-35.5 3q-17 6 -28 17.5t-11 31.5q0 17 11.5 27t27.5 13t35.5 1.5t37.5 -5.5q20 -6 43.5 -10t27.5 -4q0 4 -4 30t-10 47q-5 16 -6.5 36.5t3.5 39.5q4 18 16 31.5t34 13.5q18 0 28 -13.5t13 -31.5q3 -19 1.5 -39.5
t-6.5 -36.5q-6 -21 -9 -47t-3 -30q2 0 26 4t45 10q17 4 36 5.5t37 -2.5q16 -5 28 -16.5t12 -31.5q0 -17 -12 -26.5t-28 -14.5q-18 -4 -37 -2.5t-36 6.5q-10 2 -22 4.5t-23 5.5q-11 2 -19 4q-5 0 -6 1v-77q2 0 25.5 4t44.5 10q17 5 36.5 6t36.5 -3q16 -5 28 -16.5t12 -31.5
q0 -17 -12 -26.5t-28 -14.5q-18 -4 -37 -2.5t-36 6.5q-21 6 -45 10.5t-25 4.5q0 -13 1.5 -33.5t11.5 -36.5q4 -6 10 -25t-4 -47q-11 -29 -15.5 -73.5t-5.5 -91.5t-0.5 -90.5t-0.5 -68.5q-3 -50 -27 -50t-26 50q-2 25 -1.5 68.5t-0.5 90.5q-1 48 -5.5 92t-14.5 72
q-12 30 -7.5 49.5t9.5 25.5q9 13 13.5 35t4.5 33q-3 0 -26.5 -4.5t-44.5 -10.5q-18 -5 -37.5 -6t-35.5 3q-17 6 -28 17.5t-11 31.5q0 17 11.5 27t27.5 13q16 4 35.5 2.5t37.5 -6.5q20 -6 43.5 -10t27.5 -4v77z" />
    <glyph glyph-name="bullet" unicode="&#x2022;" horiz-adv-x="940" 
d="M577 358q0 -50 -34.5 -84t-82.5 -34q-49 0 -83 34t-34 84q0 48 34 82t83 34q48 0 82.5 -34t34.5 -82z" />
    <glyph glyph-name="twodotenleader" unicode="&#x2025;" horiz-adv-x="572" 
d="M485 413v-110h-112v110h112zM199 413v-110h-112v110h112z" />
    <glyph glyph-name="ellipsis" unicode="&#x2026;" horiz-adv-x="858" 
d="M771 413v-110h-112v110h112zM485 413v-110h-112v110h112zM199 413v-110h-112v110h112z" />
    <glyph glyph-name="perthousand" unicode="&#x2030;" horiz-adv-x="940" 
d="M189 30l218 646h66l-217 -646h-67zM147 234q-36 0 -61.5 17.5t-41.5 48.5q-15 30 -22 71t-7 88q0 40 7 79.5t22 71.5q16 32 41.5 52t61.5 20q70 0 100.5 -58.5t30.5 -162.5q0 -38 -7.5 -78t-23.5 -73q-15 -34 -40 -55t-60 -21zM95 459q0 -30 2.5 -60t9.5 -55
q7 -24 16.5 -38t23.5 -14q28 0 40.5 47.5t12.5 121.5q0 32 -3.5 62t-9.5 54q-7 23 -17 36t-24 13q-27 0 -39 -46t-12 -121zM517 22q-36 0 -61.5 17.5t-41.5 48.5q-15 30 -22 71t-7 88q0 40 7 79.5t22 71.5q16 32 41.5 52t61.5 20q70 0 100.5 -58.5t30.5 -162.5
q0 -38 -7.5 -78t-23.5 -73q-15 -34 -40 -55t-60 -21zM465 247q0 -30 2.5 -60t9.5 -55q7 -24 16.5 -38t23.5 -14q28 0 40.5 47.5t12.5 121.5q0 32 -3.5 62t-9.5 54q-7 23 -17 36t-24 13q-27 0 -39 -46t-12 -121zM798 22q-36 0 -61.5 17.5t-41.5 48.5q-15 30 -22 71t-7 88
q0 40 7 79.5t22 71.5q16 32 41.5 52t61.5 20q70 0 100.5 -58.5t30.5 -162.5q0 -38 -7.5 -78t-23.5 -73q-15 -34 -40 -55t-60 -21zM746 247q0 -30 2.5 -60t9.5 -55q7 -24 16.5 -38t23.5 -14q28 0 40.5 47.5t12.5 121.5q0 32 -3.5 62t-9.5 54q-7 23 -17 36t-24 13
q-27 0 -39 -46t-12 -121z" />
    <glyph glyph-name="minute" unicode="&#x2032;" horiz-adv-x="258" 
d="M84 536h-64l97 255h122z" />
    <glyph glyph-name="second" unicode="&#x2033;" horiz-adv-x="432" 
d="M98 536h-65l97 255h123zM237 536h-65l97 255h123z" />
    <glyph glyph-name="uni2034" unicode="&#x2034;" horiz-adv-x="450" 
d="M436 792l-197 -274l101 274h96zM325 792l-195 -274l100 274h95zM217 792l-197 -274l101 274h96z" />
    <glyph glyph-name="uni2035" unicode="&#x2035;" horiz-adv-x="400" 
d="M293 631l-270 123v99l270 -184v-38z" />
    <glyph glyph-name="uni2036" unicode="&#x2036;" horiz-adv-x="400" 
d="M293 631l-269 123v99l269 -184v-38zM293 490l-269 123v99l269 -184v-38z" />
    <glyph glyph-name="guilsinglleft" unicode="&#x2039;" horiz-adv-x="940" 
d="M883 799v-37l-652 -404l652 -403v-39l-722 442z" />
    <glyph glyph-name="guilsinglright" unicode="&#x203a;" horiz-adv-x="940" 
d="M37 799l722 -441l-722 -442v39l652 403l-652 404v37z" />
    <glyph glyph-name="uni203B" unicode="&#x203b;" horiz-adv-x="940" 
d="M527 590q0 -26 -20 -44.5t-51 -18.5q-25 0 -44 19.5t-19 48.5q0 24 19 43.5t50 19.5q25 0 45 -20t20 -48zM761 355q0 -26 -20 -44t-51 -18q-25 0 -43.5 18.5t-18.5 46.5q0 24 19 44t49 20q26 0 45 -19t20 -48zM292 355q0 -26 -19.5 -44t-49.5 -18q-27 0 -45.5 18.5
t-18.5 46.5q0 24 19 44t50 21q25 0 44.5 -19.5t19.5 -48.5zM777 94l-52 -54l-265 263l-265 -263l-53 54l264 264l-263 263l52 54l265 -263l264 263l53 -53l-263 -264zM527 121q0 -26 -19.5 -44.5t-49.5 -18.5q-26 0 -45.5 19t-19.5 48q0 24 19 43.5t49 19.5q25 0 45.5 -19.5
t20.5 -47.5z" />
    <glyph glyph-name="exclamdbl" unicode="&#x203c;" horiz-adv-x="940" 
d="M632 404l-21 -243h-36l-21 243v358h78v-358zM366 404l-21 -243h-37l-20 243v358h78v-358zM639 -46h-92v92h92v-92zM372 -46h-92v92h92v-92z" />
    <glyph glyph-name="uni203E" unicode="&#x203e;" horiz-adv-x="900" 
d="M901 784h-901v50h901v-50z" />
    <glyph glyph-name="uni2042" unicode="&#x2042;" horiz-adv-x="940" 
d="M270 178l117 9v-62l-117 10l69 -99l-57 -34l-50 112l-49 -112l-58 33l71 100l-121 -10v62l121 -9l-72 100l56 35l52 -113l52 111l57 -34zM728 178l117 9v-62l-117 10l69 -99l-57 -34l-50 112l-49 -112l-58 33l72 100l-122 -10v62l122 -9l-73 100l56 35l52 -113l52 111
l57 -34zM482 548l9 -117h-62l10 117l-98 -69l-35 57l112 50l-111 49l32 58l100 -71l-10 121h62l-9 -121l99 72l36 -56l-113 -52l110 -52l-34 -57z" />
    <glyph glyph-name="uni2047" unicode="&#x2047;" horiz-adv-x="940" 
d="M843 538q-11 -51 -35 -82t-50 -56q-25 -26 -44 -53t-19 -70v-116h-57v113q0 55 20.5 90.5t47.5 63.5q26 28 50 55.5t30 68.5q8 64 -28 105.5t-91 41.5q-66 0 -96 -46.5t-27 -110.5h-56q-2 41 7.5 80.5t32.5 70.5q22 31 57 50t85 19q43 0 78.5 -18.5t58.5 -49.5
q24 -31 34 -71.5t2 -84.5zM429 538q-11 -51 -35.5 -82t-49.5 -56q-26 -26 -45 -53t-19 -70v-116h-56v113q0 55 20.5 90.5t46.5 63.5q27 28 50.5 55.5t29.5 68.5q4 32 -3.5 59t-24.5 46q-16 20 -39.5 31t-50.5 11q-66 0 -96.5 -46.5t-27.5 -110.5h-55q-3 41 7 80.5t32 70.5
q23 31 58 50t85 19q43 0 78.5 -18.5t58.5 -49.5q24 -31 34 -71.5t2 -84.5zM705 -46h-76v92h76v-92zM290 -46h-76v92h76v-92z" />
    <glyph glyph-name="uni2049" unicode="&#x2049;" horiz-adv-x="940" 
d="M782 538q-12 -51 -39 -82t-55 -56q-28 -26 -49.5 -53t-21.5 -70v-116h-63v113q0 55 23 90.5t52 63.5t55.5 55.5t33.5 68.5q4 32 -4.5 59t-26.5 46q-18 20 -44.5 31t-56.5 11q-73 0 -106.5 -46.5t-30.5 -110.5h-61q-3 41 8 80.5t36 70.5q24 31 63.5 50t94.5 19
q47 0 86.5 -18.5t65.5 -49.5t37.5 -71.5t2.5 -84.5zM266 404l-19 -243h-34l-19 243v358h72v-358zM628 -46h-85v92h85v-92zM274 -46h-88v92h88v-92z" />
    <glyph glyph-name="uni204C" unicode="&#x204c;" horiz-adv-x="469" 
d="M414 781v-846h-37v846h37zM331 -65q-62 25 -114.5 68t-90.5 98t-59 120t-21 137q0 71 21 136.5t59 120.5t90 97.5t115 68.5v-846z" />
    <glyph glyph-name="uni204D" unicode="&#x204d;" horiz-adv-x="469" 
d="M55 781h37v-846h-37v846zM138 -65v846q62 -26 114.5 -68.5t90.5 -97.5q37 -55 58.5 -120.5t21.5 -136.5q0 -72 -21.5 -137t-59.5 -120t-90 -98t-114 -68z" />
    <glyph glyph-name="uni204E" unicode="&#x204e;" horiz-adv-x="940" 
d="M486 312l12 -149h-78l13 149l-124 -88l-44 72l141 62l-140 62l41 73l126 -90l-13 152h78l-12 -152l125 92l45 -72l-141 -65l139 -64l-44 -73z" />
    <glyph glyph-name="uni2051" unicode="&#x2051;" horiz-adv-x="276" 
d="M154 512l6 -84h-44l7 84l-70 -48l-24 39l80 35l-80 35l23 41l71 -51l-7 88h44l-6 -88l70 52l25 -40l-80 -37l79 -36l-24 -40zM154 149l6 -84h-44l7 84l-70 -48l-24 40l80 35l-80 35l23 40l71 -50l-7 87h44l-6 -87l70 51l25 -39l-80 -37l79 -36l-24 -41z" />
    <glyph glyph-name="uni2074" unicode="&#x2074;" horiz-adv-x="406" 
d="M207 454h-157v53l160 264h70v-250h63v-67h-63v-106h-73v106zM207 642l-71 -121h71v121z" />
    <glyph glyph-name="uni207A" unicode="&#x207a;" horiz-adv-x="460" 
d="M379 559h-120v-120h-58v120h-120v58h120v120h58v-120h120v-58z" />
    <glyph glyph-name="uni207B" unicode="&#x207b;" horiz-adv-x="460" 
d="M81 617h298v-58h-298v58z" />
    <glyph glyph-name="uni207C" unicode="&#x207c;" horiz-adv-x="460" 
d="M98 666h264v-55h-264v55zM98 556h264v-55h-264v55z" />
    <glyph glyph-name="uni207D" unicode="&#x207d;" horiz-adv-x="193" 
d="M180 374h-50q-26 31 -52.5 85.5t-26.5 127.5t26.5 127t52.5 87h49q-37 -59 -52 -112.5t-15 -101.5t15 -103t53 -110z" />
    <glyph glyph-name="uni207E" unicode="&#x207e;" horiz-adv-x="193" 
d="M142 587q0 -73 -27 -127.5t-52 -85.5l-49 -1q36 55 51.5 110.5t15.5 103.5t-15.5 101.5t-51.5 112.5h49q25 -33 52 -87t27 -127z" />
    <glyph glyph-name="uni207F" unicode="&#x207f;" horiz-adv-x="415" 
d="M104 692q4 9 10 17.5t16 18.5q17 17 43 29.5t63 12.5q57 0 92.5 -33t38.5 -96v-287h-72v224q0 22 -1 43t-8 38q-6 17 -21 28t-42 13q-36 2 -67.5 -32t-45.5 -88q-3 -16 -4.5 -30t-1.5 -29v-167h-72v406h72v-68z" />
    <glyph glyph-name="uni2081" unicode="&#x2081;" horiz-adv-x="387" 
d="M168 272l-68 -43v77l85 52h58v-423h-75v337z" />
    <glyph glyph-name="uni2082" unicode="&#x2082;" horiz-adv-x="387" 
d="M73 -3l31 27l30 30t38 42q19 24 36.5 49t28.5 50q3 8 5.5 23.5t2.5 26.5q1 17 -11 35t-39 18q-24 0 -36.5 -15.5t-9.5 -47.5h-79q0 21 5.5 41.5t19.5 39.5q15 19 39 32t61 13q47 0 86.5 -33t39.5 -87q0 -13 -2.5 -32.5t-8.5 -34.5q-11 -27 -29 -54t-38 -50
q-21 -24 -41 -43t-23 -23h150v-67h-256v60z" />
    <glyph glyph-name="uni2083" unicode="&#x2083;" horiz-adv-x="387" 
d="M284 164q6 -3 25.5 -26t19.5 -69q0 -53 -35 -91t-99 -38q-65 0 -97.5 31t-37.5 80h81q1 -21 12 -34.5t40 -13.5q30 0 44 18t14 49q0 40 -24.5 52.5t-64.5 12.5v62q32 0 47 2.5t20 8.5q8 8 12.5 18.5t4.5 27.5q1 25 -13 39.5t-36 14.5q-26 0 -39 -11.5t-17 -35.5h-72
q0 22 7.5 40.5t22.5 32.5q15 16 38.5 26t56.5 10q23 0 46 -8t41 -24q18 -14 29.5 -35.5t11.5 -48.5q0 -42 -16.5 -65.5t-21.5 -24.5z" />
    <glyph glyph-name="uni2084" unicode="&#x2084;" horiz-adv-x="406" 
d="M207 44h-157v53l160 264h70v-250h63v-67h-63v-106h-73v106zM207 232l-71 -121h71v121z" />
    <glyph glyph-name="uni20A9" unicode="&#x20a9;" horiz-adv-x="960" 
d="M106 730h68l53 -262h137l60 262h83l64 -262h139l49 262h69l-48 -262h156v-53h-166l-66 -359h-94l-88 359h-105l-83 -359h-93l-72 359h-143v53h132zM238 415l53 -260h2l59 260h-114zM584 415l65 -264h2l49 264h-116zM508 468l-39 160h-2l-37 -160h78z" />
    <glyph glyph-name="Euro" unicode="&#x20ac;" horiz-adv-x="920" 
d="M379 532h-114v66l205 68l66 -5q11 -10 10 -36v-454q0 -22 10.5 -31.5t28.5 -11.5q26 -3 42.5 -9.5t16.5 -26.5v-44h-363v44q0 20 16 26.5t43 9.5q17 2 28 11.5t11 30.5v362zM160 -47h600q21 0 40.5 6t31.5 17q17 15 24.5 38.5t7.5 47.5v594q0 19 -6.5 41.5t-15.5 34.5
q-16 17 -38.5 24t-46.5 7h-594q-24 0 -47 -7t-38 -24q-10 -12 -16 -34.5t-6 -41.5v-595q0 -23 7 -46.5t24 -38.5q11 -11 31.5 -17t41.5 -6zM174 804h572q9 0 25.5 -1t35.5 -5q18 -4 36.5 -13t31.5 -24q20 -25 26 -54t6 -47v-588q0 -9 -1.5 -25.5t-5.5 -34.5t-13 -36t-24 -30
q-25 -19 -54 -26.5t-49 -7.5h-600q-21 0 -50 7.5t-53 26.5q-16 12 -25 30t-13 36t-5 34.5t-1 25.5v588q0 18 5.5 47t26.5 54q13 15 31.5 24t36.5 13q19 4 35.5 5t25.5 1z" />
    <glyph glyph-name="uni2103" unicode="&#x2103;" horiz-adv-x="852" 
d="M133 813q47 0 80.5 -33t33.5 -79q0 -47 -33.5 -80t-80.5 -33q-49 0 -82.5 33t-33.5 80q0 46 33.5 79t82.5 33zM133 761q-23 0 -40.5 -17.5t-17.5 -42.5t17.5 -42.5t40.5 -17.5q21 0 38.5 17.5t17.5 42.5t-17.5 42.5t-38.5 17.5zM793 63q-12 -6 -29 -13.5t-42 -14.5
q-26 -7 -61.5 -12t-82.5 -5q-87 0 -149.5 34t-102.5 89q-41 55 -59.5 123.5t-18.5 138.5q0 69 19.5 133.5t60.5 114.5t102 80.5t143 30.5q76 0 138 -33.5t92 -93.5q9 -19 12.5 -43.5t4.5 -44.5h-97q0 33 -9.5 56t-25.5 42q-18 20 -51.5 31t-63.5 11q-48 0 -89.5 -19
t-72.5 -56q-32 -36 -49.5 -90t-17.5 -122q0 -38 9.5 -90.5t36.5 -99.5q28 -48 77.5 -82t130.5 -35q49 -1 92 10t66 27q15 9 37 31v-98z" />
    <glyph glyph-name="uni2109" unicode="&#x2109;" horiz-adv-x="940" 
d="M766 667h-302v-231h290v-70h-290v-336h-85v707h387v-70zM192 832q51 0 86.5 -36t35.5 -84q0 -49 -35.5 -84.5t-86.5 -35.5t-86.5 35.5t-35.5 84.5q0 48 35.5 84t86.5 36zM192 764q-21 0 -36.5 -15.5t-15.5 -36.5q0 -22 15.5 -37t36.5 -15t36.5 15t15.5 37
q0 21 -15.5 36.5t-36.5 15.5z" />
    <glyph glyph-name="afii61289" unicode="&#x2113;" horiz-adv-x="940" 
d="M649 91q-21 -43 -50.5 -66.5t-62.5 -30.5q-36 -10 -79.5 9t-76.5 65l-20 -8t-30 -11q-19 -6 -30.5 -8.5t-23.5 -4.5l-26 70q52 -1 93 21q-32 65 -43 142t-8 161q1 68 16 127.5t40 104.5t57.5 72t70.5 30q41 2 70 -24.5t45 -73.5q16 -46 19 -110t-7 -139
q-19 -119 -62 -198.5t-87 -119.5q19 -29 39 -34.5t40 0.5q35 11 62 69zM476 689q-20 -2 -38 -24t-31 -60q-14 -37 -22.5 -83.5t-9.5 -94.5q-3 -82 7.5 -155t32.5 -108q42 41 72 107t39 153q4 44 6 92.5t-4 87.5q-5 39 -18 62.5t-34 22.5z" />
    <glyph glyph-name="afii61352" unicode="&#x2116;" horiz-adv-x="940" 
d="M714 142q-36 0 -71.5 10.5t-64.5 35.5q-28 23 -45.5 60.5t-17.5 91.5q0 48 17.5 85.5t44.5 63.5q28 26 63.5 40t71.5 14t72.5 -13.5t63.5 -39.5q29 -25 47 -63t18 -86q0 -54 -18 -92t-47 -62q-29 -23 -64 -34t-70 -11zM612 340q0 -59 30 -94t73 -35q40 0 69.5 35.5
t29.5 94.5q0 64 -31.5 98.5t-71.5 34.5q-41 0 -70 -33.5t-29 -100.5zM515 106l398 1v-77h-398v76zM379 198v552h89v-720h-113l-214 551v-551h-89v720h112z" />
    <glyph glyph-name="uni2121" unicode="&#x2121;" horiz-adv-x="940" 
d="M198 30v643h-191v77h474v-77h-191v-643h-92zM749 336v-65h-318q0 -17 3 -39.5t12 -44.5q8 -22 24 -41.5t44 -35.5q21 -10 49 -15t56 -5q28 1 56 5.5t59 13.5v-67q-93 -25 -172.5 -19t-144.5 68q-33 33 -55.5 84.5t-22.5 118.5q0 110 57.5 180t170.5 70q48 0 81 -17.5
t55 -46.5q21 -30 33 -66.5t13 -77.5zM432 339h221q0 23 -3 48.5t-13 45.5q-9 19 -26.5 30.5t-47.5 11.5q-60 0 -93.5 -37t-37.5 -99zM809 30v720h88v-720h-88z" />
    <glyph glyph-name="trademark" unicode="&#x2122;" horiz-adv-x="940" 
d="M219 350v332h-135v70h341v-70h-135v-332h-71zM607 350l-98 236v-236h-67v402h69l120 -290l106 290h81v-402h-67v239l-92 -239h-52z" />
    <glyph glyph-name="uni2126" unicode="&#x2126;" horiz-adv-x="940" 
d="M739 437q0 -53 -15.5 -98.5t-40.5 -82.5q-26 -36 -59.5 -62t-66.5 -38v-58h143v-68h-184q-22 0 -26 17t-4 33v83q0 12 1.5 18t6.5 12q4 7 12 14t37 18q45 14 80 66t35 147q0 104 -57 166.5t-149 62.5q-47 0 -84 -17t-64 -47q-28 -30 -42.5 -72.5t-14.5 -92.5
q0 -90 31.5 -142t96.5 -78q19 -7 29.5 -17.5t14.5 -24.5t4 -26.5v-13.5v-43q0 -63 -32 -63h-174v68h132v55q-80 26 -132.5 98.5t-49.5 186.5q-1 61 19.5 114.5t57.5 95.5q38 41 90.5 65t117.5 24q62 0 115 -23.5t92 -64.5q37 -40 58.5 -94.5t21.5 -117.5z" />
    <glyph glyph-name="uni212B" unicode="&#x212b;" horiz-adv-x="615" 
d="M300 845q47 0 80.5 -33t33.5 -79q0 -22 -10.5 -45t-21.5 -36l223 -622h-95l-75 220h-265l-78 -220h-90l217 622q-15 13 -25 34.5t-10 46.5q0 46 33.5 79t82.5 33zM293 620l-98 -294h215l-101 294h-16zM300 793q-23 0 -40.5 -17.5t-17.5 -42.5t17.5 -42.5t40.5 -17.5
q21 0 38.5 17.5t17.5 42.5t-17.5 42.5t-38.5 17.5z" />
    <glyph glyph-name="onethird" unicode="&#x2153;" horiz-adv-x="940" 
d="M109 -48l-56 46l683 780l57 -43zM198 682l-68 -43v77l85 52h58v-423h-75v337zM744 174q6 -3 25.5 -26t19.5 -69q0 -53 -35 -91t-99 -38q-65 0 -97.5 31t-37.5 80h81q1 -21 12 -34.5t40 -13.5q30 0 44 18t14 49q0 40 -24.5 52.5t-64.5 12.5v62q32 0 47 3t20 8q17 18 17 46
q0 25 -13.5 39.5t-35.5 14.5q-26 0 -39 -11.5t-17 -35.5h-72q0 22 7.5 40.5t22.5 32.5q15 16 38.5 26t56.5 10q23 0 46 -8t41 -24q18 -14 29.5 -35.5t11.5 -48.5q0 -42 -16.5 -65.5t-21.5 -24.5z" />
    <glyph glyph-name="twothirds" unicode="&#x2154;" horiz-adv-x="940" 
d="M109 -48l-56 46l683 780l57 -43zM63 417q30 24 54.5 49.5t44.5 49.5q19 24 36.5 49t28.5 50q3 8 6 23.5t2 26.5q-6 53 -50 53q-24 0 -36.5 -15.5t-9.5 -47.5h-79q0 21 5.5 41.5t19.5 39.5q15 19 39 32t61 13q47 0 86.5 -33t39.5 -87q0 -13 -2.5 -32.5t-8.5 -34.5
q-11 -27 -29 -54t-38 -50q-21 -24 -41 -43t-23 -23h150v-67h-256v60zM744 174q6 -3 25.5 -26t19.5 -69q0 -53 -35 -91t-99 -38q-65 0 -97.5 31t-37.5 80h81q1 -21 12 -34.5t40 -13.5q30 0 44 18t14 49q0 40 -24.5 52.5t-64.5 12.5v62q32 0 47 3t20 8q17 18 17 46
q0 25 -13.5 39.5t-35.5 14.5q-26 0 -39 -11.5t-17 -35.5h-72q0 22 7.5 40.5t22.5 32.5q15 16 38.5 26t56.5 10q23 0 46 -8t41 -24q18 -14 29.5 -35.5t11.5 -48.5q0 -42 -16.5 -65.5t-21.5 -24.5z" />
    <glyph glyph-name="oneeighth" unicode="&#x215b;" horiz-adv-x="940" 
d="M109 -48l-56 46l683 780l57 -43zM198 682l-68 -43v77l85 52h58v-423h-75v337zM605 264q0 -22 6.5 -34.5t25.5 -21.5q3 -1 8.5 -2t13.5 -1q24 0 37 16t14 43q0 28 -14 42.5t-39 14.5q-22 0 -37 -14.5t-15 -42.5zM598 79q0 -24 13 -45.5t49 -21.5q27 0 41.5 16t15.5 51
q0 26 -15 44.5t-45 19.5q-25 0 -42 -16.5t-17 -47.5zM745 174q8 -5 27.5 -30.5t19.5 -68.5q0 -57 -37.5 -90.5t-97.5 -34.5q-55 0 -95 32.5t-40 94.5q0 50 21.5 73.5t25.5 25.5q-8 5 -23.5 26.5t-15.5 65.5q0 42 35 77t93 35q23 0 46 -8t41 -24q17 -14 28.5 -35t11.5 -44
q0 -44 -16.5 -68t-23.5 -27z" />
    <glyph glyph-name="threeeighths" unicode="&#x215c;" horiz-adv-x="940" 
d="M109 -48l-56 46l683 780l57 -43zM605 264q0 -22 6.5 -34.5t25.5 -21.5q3 -1 8.5 -2t13.5 -1q24 0 37 16t14 43q0 28 -14 42.5t-39 14.5q-22 0 -37 -14.5t-15 -42.5zM598 79q0 -24 13 -45.5t49 -21.5q27 0 41.5 16t15.5 51q0 26 -15 44.5t-45 19.5q-25 0 -42 -16.5
t-17 -47.5zM745 174q8 -5 27.5 -30.5t19.5 -68.5q0 -57 -37.5 -90.5t-97.5 -34.5q-55 0 -95 32.5t-40 94.5q0 50 21.5 73.5t25.5 25.5q-8 5 -23.5 26.5t-15.5 65.5q0 42 35 77t93 35q23 0 46 -8t41 -24q17 -14 28.5 -35t11.5 -44q0 -44 -16.5 -68t-23.5 -27zM284 574
q6 -3 25.5 -26t19.5 -69q0 -53 -35 -91t-99 -38q-65 0 -97.5 31t-37.5 80h81q1 -21 12 -34.5t40 -13.5q30 0 44 18t14 49q0 40 -24.5 52.5t-64.5 12.5v62q32 0 47 3t20 8q17 18 17 46q0 25 -13.5 39.5t-35.5 14.5q-26 0 -39 -11.5t-17 -35.5h-72q0 22 7.5 40.5t22.5 32.5
q15 16 38.5 26t56.5 10q23 0 46 -8t41 -24q18 -14 29.5 -35.5t11.5 -48.5q0 -42 -16.5 -65.5t-21.5 -24.5z" />
    <glyph glyph-name="fiveeighths" unicode="&#x215d;" horiz-adv-x="940" 
d="M109 -48l-56 46l683 780l57 -43zM155 616q16 5 45 5q59 0 95 -38.5t36 -96.5q0 -53 -38.5 -94t-100.5 -41q-34 0 -58.5 9.5t-40.5 25.5q-15 16 -22 34t-7 42h82q0 -23 9.5 -36t36.5 -13t44.5 19.5t18.5 55.5q0 34 -17 52.5t-42 18.5q-16 0 -27 -6t-23 -22h-67l10 243h219
v-68h-148zM605 264q0 -22 6.5 -34.5t25.5 -21.5q3 -1 8.5 -2t13.5 -1q24 0 37 16t14 43q0 28 -14 42.5t-39 14.5q-22 0 -37 -14.5t-15 -42.5zM598 79q0 -24 13 -45.5t49 -21.5q27 0 41.5 16t15.5 51q0 26 -15 44.5t-45 19.5q-25 0 -42 -16.5t-17 -47.5zM745 174
q8 -5 27.5 -30.5t19.5 -68.5q0 -57 -37.5 -90.5t-97.5 -34.5q-55 0 -95 32.5t-40 94.5q0 50 21.5 73.5t25.5 25.5q-8 5 -23.5 26.5t-15.5 65.5q0 42 35 77t93 35q23 0 46 -8t41 -24q17 -14 28.5 -35t11.5 -44q0 -44 -16.5 -68t-23.5 -27z" />
    <glyph glyph-name="seveneighths" unicode="&#x215e;" horiz-adv-x="940" 
d="M109 -48l-56 46l683 780l57 -43zM248 704h-176v69h261v-55l-146 -363h-80zM605 264q0 -22 6.5 -34.5t25.5 -21.5q3 -1 8.5 -2t13.5 -1q24 0 37 16t14 43q0 28 -14 42.5t-39 14.5q-22 0 -37 -14.5t-15 -42.5zM598 79q0 -24 13 -45.5t49 -21.5q27 0 41.5 16t15.5 51
q0 26 -15 44.5t-45 19.5q-25 0 -42 -16.5t-17 -47.5zM745 174q8 -5 27.5 -30.5t19.5 -68.5q0 -57 -37.5 -90.5t-97.5 -34.5q-55 0 -95 32.5t-40 94.5q0 50 21.5 73.5t25.5 25.5q-8 5 -23.5 26.5t-15.5 65.5q0 42 35 77t93 35q23 0 46 -8t41 -24q17 -14 28.5 -35t11.5 -44
q0 -44 -16.5 -68t-23.5 -27z" />
    <glyph glyph-name="uni2160" unicode="&#x2160;" horiz-adv-x="940" 
d="M505 30h-90v724h90v-724z" />
    <glyph glyph-name="uni2161" unicode="&#x2161;" horiz-adv-x="940" 
d="M644 30h-87v724h87v-724zM363 30h-87v724h87v-724z" />
    <glyph glyph-name="uni2162" unicode="&#x2162;" horiz-adv-x="940" 
d="M687 30h-87v724h87v-724zM504 30h-87v724h87v-724zM320 30h-87v724h87v-724z" />
    <glyph glyph-name="uni2163" unicode="&#x2163;" horiz-adv-x="940" 
d="M789 754l-216 -724h-93l-217 724h91l173 -606l172 606h90zM245 30h-87v724h87v-724z" />
    <glyph glyph-name="uni2164" unicode="&#x2164;" horiz-adv-x="940" 
d="M779 754l-274 -724h-91l-272 724h90l228 -614l228 614h91z" />
    <glyph glyph-name="uni2165" unicode="&#x2165;" horiz-adv-x="940" 
d="M756 30h-86v724h86v-724zM644 754l-217 -724h-92l-217 723l91 1l172 -606l172 606h91z" />
    <glyph glyph-name="uni2166" unicode="&#x2166;" horiz-adv-x="940" 
d="M796 30h-82v724h82v-724zM658 30h-83v724h83v-724zM549 754l-188 -724h-93l-189 724h91l145 -600l144 600h90z" />
    <glyph glyph-name="uni2167" unicode="&#x2167;" horiz-adv-x="940" 
d="M846 30h-81v724h81v-724zM717 30h-81v724h81v-724zM588 30h-82v724h82v-724zM488 754l-177 -724h-92l-177 724h90l133 -598l134 598h89z" />
    <glyph glyph-name="uni2168" unicode="&#x2168;" horiz-adv-x="940" 
d="M812 30h-98l-192 296l-193 -296h-97l240 375l-223 349h96l177 -273l176 273h97l-223 -350zM218 30h-83v724h83v-724z" />
    <glyph glyph-name="uni2169" unicode="&#x2169;" horiz-adv-x="940" 
d="M748 30h-97l-193 297l-194 -297h-96l239 374l-222 350h96l177 -273l176 273h98l-223 -350z" />
    <glyph glyph-name="uni2170" unicode="&#x2170;" horiz-adv-x="940" 
d="M507 667h-96v89h96v-89zM505 30h-91v536h91v-536z" />
    <glyph glyph-name="uni2171" unicode="&#x2171;" horiz-adv-x="940" 
d="M646 667h-91v89h91v-89zM365 667h-91v89h91v-89zM644 30h-87v536h87v-536zM363 30h-87v536h87v-536z" />
    <glyph glyph-name="uni2172" unicode="&#x2172;" horiz-adv-x="940" 
d="M690 667h-91v89h91v-89zM506 667h-91v89h91v-89zM322 667h-91v89h91v-89zM688 30h-87v536h87v-536zM504 30h-87v536h87v-536zM320 30h-87v536h87v-536z" />
    <glyph glyph-name="uni2173" unicode="&#x2173;" horiz-adv-x="940" 
d="M257 667h-91v89h91v-89zM800 566l-216 -536h-90l-215 536h90l170 -425l170 425h91zM255 30h-86v536h86v-536z" />
    <glyph glyph-name="uni2174" unicode="&#x2174;" horiz-adv-x="940" 
d="M719 566l-216 -536h-90l-215 536h90l170 -425l170 425h91z" />
    <glyph glyph-name="uni2175" unicode="&#x2175;" horiz-adv-x="940" 
d="M764 667h-91v89h91v-89zM762 30h-87v536h87v-536zM640 566l-216 -536h-90l-216 536h91l170 -425l170 425h91z" />
    <glyph glyph-name="uni2176" unicode="&#x2176;" horiz-adv-x="940" 
d="M797 667h-85v89h85v-89zM660 667h-86v89h86v-89zM796 30h-82v536h82v-536zM659 30h-83v536h83v-536zM550 566l-191 -536h-90l-190 536h88l148 -420l146 420h89z" />
    <glyph glyph-name="uni2177" unicode="&#x2177;" horiz-adv-x="940" 
d="M848 667h-85v89h85v-89zM719 667h-86v89h86v-89zM590 667h-86v89h86v-89zM846 30h-81v536h81v-536zM717 30h-82v536h82v-536zM589 30h-83v536h83v-536zM484 566l-180 -536h-90l-178 536h87l136 -419l136 419h89z" />
    <glyph glyph-name="uni2178" unicode="&#x2178;" horiz-adv-x="940" 
d="M275 667h-92v89h92v-89zM781 30h-96l-154 205l-154 -205h-96l200 274l-191 262h97l145 -196l144 196h96l-191 -262zM272 30h-86v536h86v-536z" />
    <glyph glyph-name="uni2179" unicode="&#x2179;" horiz-adv-x="940" 
d="M713 30h-100l-154 204l-155 -204h-100l203 274l-194 262h100l145 -195l146 195h100l-194 -262z" />
    <glyph glyph-name="arrowleft" unicode="&#x2190;" horiz-adv-x="940" 
d="M232 522l-51 -135h750v-59h-750l51 -140l-229 169z" />
    <glyph glyph-name="arrowup" unicode="&#x2191;" horiz-adv-x="940" 
d="M629 603l-139 51v-765h-61v765l-135 -50l165 230z" />
    <glyph glyph-name="arrowright" unicode="&#x2192;" horiz-adv-x="940" 
d="M706 186l52 142h-749v59h749l-51 135l230 -165z" />
    <glyph glyph-name="arrowdown" unicode="&#x2193;" horiz-adv-x="940" 
d="M294 106l135 -50v772h61v-772l139 51l-170 -232z" />
    <glyph glyph-name="arrowboth" unicode="&#x2194;" horiz-adv-x="940" 
d="M705 188l51 140h-575l51 -140l-229 169l229 165l-51 -135h575l-51 135l230 -165z" />
    <glyph glyph-name="arrowupdn" unicode="&#x2195;" horiz-adv-x="940" 
d="M311 616l149 216l150 -216l-122 51v-622l122 48l-149 -214l-150 216l121 -50v621z" />
    <glyph glyph-name="uni2196" unicode="&#x2196;" horiz-adv-x="940" 
d="M296 755l-129 -56l749 -762l-46 -45l-749 761l-61 -134l-45 283z" />
    <glyph glyph-name="uni2197" unicode="&#x2197;" horiz-adv-x="940" 
d="M862 518l-60 135l-751 -761l-43 46l748 761l-130 56l281 47z" />
    <glyph glyph-name="uni2198" unicode="&#x2198;" horiz-adv-x="940" 
d="M629 -46l129 56l-747 760l43 46l751 -760l60 135l45 -285z" />
    <glyph glyph-name="uni2199" unicode="&#x2199;" horiz-adv-x="940" 
d="M59 196l57 -131l762 748l45 -46l-762 -750l133 -59l-282 -43z" />
    <glyph glyph-name="uni219C" unicode="&#x219c;" horiz-adv-x="940" 
d="M377 660v-123l-133 139l133 138v-123h111q43 0 80.5 -9t65.5 -29t45 -52t19 -78q1 -45 -13 -77.5t-38 -57.5q-23 -25 -54 -44.5t-63 -37.5t-63 -35.5t-55 -39.5q-24 -21 -38 -48.5t-12 -64.5q1 -38 15.5 -66.5t37.5 -48.5q23 -21 51.5 -34t58.5 -22q30 -8 58.5 -12
t51.5 -5q22 -2 35.5 -1.5t14.5 0.5v-30q-1 0 -16 -1t-40 0t-57 5t-65 13q-34 9 -66 24.5t-58 39.5q-25 23 -41.5 56.5t-17.5 79.5q-2 43 12.5 76t39.5 58q24 25 55.5 44.5t64.5 37.5t64 36t54 40q24 22 37.5 49.5t10.5 65.5q-6 70 -49 104t-127 34q-12 0 -30.5 -0.5
t-35.5 -0.5h-43z" />
    <glyph glyph-name="uni219D" unicode="&#x219d;" horiz-adv-x="940" 
d="M562 660l-110 1q-84 0 -127 -34t-49 -104q-3 -38 10 -65.5t37 -49.5q23 -22 54 -40t64 -36t64.5 -37.5t55.5 -44.5q25 -25 39.5 -58t13.5 -76q-2 -46 -18 -79.5t-42 -56.5q-25 -24 -57.5 -39.5t-65.5 -24.5q-34 -9 -66 -13t-57 -5t-40 0l-15 1v30l13.5 -0.5t35.5 1.5
q23 1 51.5 5t58.5 12q30 9 58.5 22t51.5 34q23 20 37.5 48.5t16.5 66.5q1 37 -13 64.5t-38 48.5q-24 22 -54.5 39.5t-62.5 35.5q-33 18 -63.5 37.5t-54.5 44.5t-38 57.5t-12 77.5q1 46 18 78t45 52t65.5 29t81.5 9h112v123l132 -138l-132 -139v123z" />
    <glyph glyph-name="uni21B0" unicode="&#x21b0;" horiz-adv-x="940" 
d="M775 584v-686h-25v661h-607v-128l-133 139l133 138v-124h632z" />
    <glyph glyph-name="uni21B1" unicode="&#x21b1;" horiz-adv-x="940" 
d="M156 578h631v125l133 -138l-133 -139v127h-606v-655h-25v680z" />
    <glyph glyph-name="uni21B2" unicode="&#x21b2;" horiz-adv-x="940" 
d="M782 117h-639v-126l-133 137l133 140v-127h614v677h25v-701z" />
    <glyph glyph-name="uni21B3" unicode="&#x21b3;" horiz-adv-x="940" 
d="M160 124v694h24v-669h603v126l133 -140l-133 -137v126h-627z" />
    <glyph glyph-name="uni21B4" unicode="&#x21b4;" horiz-adv-x="940" 
d="M690 678v-648h126l-137 -132l-139 132h126v623h-656v25h680z" />
    <glyph glyph-name="uni21B6" unicode="&#x21b6;" horiz-adv-x="940" 
d="M705 -102h-33l1 701q0 34 -12 68t-34 61q-23 27 -55.5 43.5t-74.5 16.5q-44 0 -79 -23t-58 -56q-23 -34 -32 -72.5t0 -69.5h123l-139 -132l-138 132h124q-9 42 2 86t38 81q27 36 68 59.5t93 23.5q43 0 80.5 -17t65.5 -46q28 -30 44.5 -69.5t16.5 -85.5z" />
    <glyph glyph-name="uni21B7" unicode="&#x21b7;" horiz-adv-x="940" 
d="M259 -102l1 701q0 46 16 85.5t44 69.5q28 29 65.5 46t81.5 17q51 0 92 -23.5t68 -59.5q27 -37 38 -81t3 -86h124l-138 -132l-139 132h123q8 31 -1 69.5t-32 72.5q-23 33 -58 56t-78 23t-75.5 -16.5t-55.5 -43.5q-22 -27 -33.5 -61t-11.5 -68l-1 -701h-33z" />
    <glyph glyph-name="uni21BC" unicode="&#x21bc;" horiz-adv-x="940" 
d="M224 488q30 21 57.5 33t48.5 19q21 6 33.5 8t13.5 2q-1 -1 -12.5 -7.5t-28.5 -18.5q-16 -12 -36 -28t-37 -35q-17 -18 -29 -34t-21 -29q-8 -13 -12.5 -20.5l-4.5 -7.5h724v-23h-910q14 12 34 25t47 30q26 16 59 37t74 49z" />
    <glyph glyph-name="uni21C0" unicode="&#x21c0;" horiz-adv-x="940" 
d="M708 488q40 -28 73 -49t59 -37q27 -17 47 -30t34 -25h-911v23h726q-1 0 -5.5 7.5t-12.5 20.5q-9 13 -21 29t-28 34q-18 19 -38 35t-37 28q-16 12 -27.5 18.5t-11.5 7.5l12.5 -2t33.5 -8q21 -7 48.5 -19t58.5 -33z" />
    <glyph glyph-name="uni21C4" unicode="&#x21c4;" horiz-adv-x="940" 
d="M913 511l-310 -120l103 91h-676v59h678l-105 91zM896 179h-676l103 -91l-309 121l309 120l-105 -91h678v-59z" />
    <glyph glyph-name="uni21C5" unicode="&#x21c5;" horiz-adv-x="940" 
d="M309 810l120 -310l-91 103v-676h-59v678l-91 -105zM641 793v-676l91 103l-122 -310l-119 310l91 -105v678h59z" />
    <glyph glyph-name="uni21CD" unicode="&#x21cd;" horiz-adv-x="940" 
d="M516 435h-395l-77 -77l78 -79h352zM147 460h376l52 194l24 -7l-50 -187h371v-25h-378l-41 -156h419v-24h-426l-52 -198l-25 6l51 192h-321l137 -139l-19 -16l-255 258l254 256l19 -16z" />
    <glyph glyph-name="uni21CF" unicode="&#x21cf;" horiz-adv-x="940" 
d="M383 260l-54 -203l-25 6l53 197h-347v25h354l41 155h-395v25h402l49 189l25 -7l-48 -182h345l-136 138l19 17l254 -258l-255 -257l-19 16l137 139h-400zM390 285h418l78 78l-77 77h-377z" />
    <glyph glyph-name="arrowdblleft" unicode="&#x21d0;" horiz-adv-x="940" 
d="M920 255h-773l137 -139l-19 -16l-255 258l254 256l19 -16l-136 -138h773v-25h-799l-77 -77l77 -79h799v-24z" />
    <glyph glyph-name="arrowdblup" unicode="&#x21d1;" horiz-adv-x="940" 
d="M371 817v-919h-25v843l-300 -359l-23 22zM545 817l348 -413l-23 -22l-300 359v-843h-25v919z" />
    <glyph glyph-name="arrowdblright" unicode="&#x21d2;" horiz-adv-x="940" 
d="M9 294h759l62 63l-62 63h-759v60h700l-102 105l43 51l280 -279l-276 -280l-47 49l103 108h-701v60z" />
    <glyph glyph-name="arrowdbldown" unicode="&#x21d3;" horiz-adv-x="940" 
d="M371 -104l-348 413l23 21l300 -359v843h25v-918zM545 -104v918h25v-843l300 359l23 -21z" />
    <glyph glyph-name="arrowdblboth" unicode="&#x21d4;" horiz-adv-x="940" 
d="M230 480h480l-105 106l50 49l273 -278l-271 -282l-51 53l104 106h-480l102 -106l-47 -54l-273 283l272 280l49 -51zM767 294l62 63l-62 63h-595l-62 -64l62 -62h595z" />
    <glyph glyph-name="uni21E0" unicode="&#x21e0;" horiz-adv-x="940" 
d="M223 558v-401l-185 200zM379 415q31 0 48 -20t19 -44q1 -24 -13.5 -43.5t-45.5 -19.5q-33 0 -50 19t-18 43q-2 24 12.5 44t47.5 21zM608 415q31 0 48 -20t19 -44q0 -24 -14.5 -43.5t-45.5 -19.5q-33 0 -50 19t-18 43q-2 24 13 44t48 21zM836 415q31 0 48.5 -20t18.5 -44
t-14 -43.5t-47 -19.5q-32 -1 -49 18.5t-18 43.5q-2 24 13 44t48 21z" />
    <glyph glyph-name="uni21E1" unicode="&#x21e1;" horiz-adv-x="940" 
d="M268 605l202 186l199 -186h-401zM412 449q0 31 19.5 46t43.5 15q24 -2 44 -19t20 -49t-20 -46.5t-44 -12.5q-24 0 -43.5 17t-19.5 49zM412 220q0 31 19.5 46t43.5 15q24 -1 44 -18t20 -49q0 -33 -20 -47.5t-44 -12.5q-24 1 -43.5 18t-19.5 48zM412 -7q0 32 19.5 47
t43.5 15q24 -2 44 -18.5t20 -48.5q-1 -33 -21 -48.5t-44 -13.5q-24 1 -43 18t-19 49z" />
    <glyph glyph-name="uni21E2" unicode="&#x21e2;" horiz-adv-x="940" 
d="M717 559l185 -201l-185 -200v401zM98 414q31 0 48 -20t19 -44q1 -24 -13.5 -43.5t-45.5 -19.5q-33 0 -50 19t-18 43q-2 24 12.5 44t47.5 21zM327 414q31 0 48 -20t19 -44q0 -24 -14.5 -43.5t-45.5 -19.5q-33 0 -50 19t-18 43q-2 24 13 44t48 21zM555 414q31 0 48.5 -20
t18.5 -44t-14 -43.5t-47 -19.5q-32 -1 -49 18.5t-18 43.5q-2 24 13 44t48 21z" />
    <glyph glyph-name="uni21E3" unicode="&#x21e3;" horiz-adv-x="940" 
d="M268 111h401l-199 -186zM411 731q0 31 19.5 46t43.5 15q24 -2 44 -19t20 -49t-20 -46.5t-44 -12.5q-24 0 -43.5 17t-19.5 49zM411 502q0 31 19.5 46t43.5 15q24 -1 44 -18t20 -49q0 -33 -20 -47.5t-44 -12.5q-24 1 -43.5 18t-19.5 48zM411 275q0 32 19.5 47t43.5 15
q24 -2 44 -18.5t20 -48.5q-1 -33 -21 -48.5t-44 -13.5q-24 1 -43 18t-19 49z" />
    <glyph glyph-name="uni21E6" unicode="&#x21e6;" horiz-adv-x="940" 
d="M875 220v273h-498v164l-301 -300l301 -301v164h498zM902 519v-324h-500v-204l-365 367l365 365v-204h500z" />
    <glyph glyph-name="uni21E7" unicode="&#x21e7;" horiz-adv-x="940" 
d="M607 -47v498h164l-301 301l-299 -302h163v-497h273zM308 -74v499h-204l366 366l366 -365h-204v-500h-324z" />
    <glyph glyph-name="uni21E8" unicode="&#x21e8;" horiz-adv-x="940" 
d="M65 220h498v-164l301 301l-301 300v-164h-498v-273zM38 519h500v204l365 -365l-365 -367v204h-500v324z" />
    <glyph glyph-name="uni21E9" unicode="&#x21e9;" horiz-adv-x="940" 
d="M607 763h-273v-497h-163l299 -302l301 301h-164v498zM308 790h324v-500h204l-366 -365l-366 366h204v499z" />
    <glyph glyph-name="uni21F0" unicode="&#x21f0;" horiz-adv-x="940" 
d="M38 525l140 -95h199v279q0 -1 16 -17t43 -41t63 -54t75 -55q150 -101 239 -142.5t91 -41.5q-4 -2 -19.5 -8t-48.5 -23q-32 -16 -83.5 -45t-126.5 -76q-57 -36 -102.5 -71.5t-78.5 -64.5q-32 -28 -50 -46l-18 -18v278h-199l-140 -93v334zM63 244l108 67h234v-239
q2 1 20 18t46 41q29 23 64.5 50.5t73.5 50.5q124 75 178 100t57 26q-1 0 -77.5 36t-199.5 116q-31 19 -59.5 42t-50.5 43q-23 20 -37 33.5t-15 15.5v-240h-234l-108 67v-227z" />
    <glyph glyph-name="universal" unicode="&#x2200;" horiz-adv-x="614" 
d="M253 30l-251 720h90l78 -220h265l75 220h101l-254 -720h-104zM195 454l106 -321h2l107 321h-215z" />
    <glyph glyph-name="partialdiff" unicode="&#x2202;" horiz-adv-x="423" 
d="M369 319q-22 -73 -72.5 -117t-103.5 -59q-51 -15 -97 1t-57 70q-3 16 0.5 37t20.5 45q16 25 47.5 48t82.5 40q20 5 39 8t35 4t25 1h13q1 12 -2.5 32t-14.5 37q-12 16 -34 24.5t-59 2.5q-22 -4 -39 -15t-30 -21q-13 -12 -24 -21.5t-20 -2.5q-9 6 -0.5 26.5t28.5 39.5
q20 21 53 36.5t78 13.5q40 -2 70.5 -20.5t47.5 -49.5q19 -31 22.5 -72t-9.5 -88zM300 342q-8 0 -24.5 -0.5t-35.5 -4.5q-18 -3 -38 -10.5t-39 -21.5q-37 -27 -44.5 -54.5t7.5 -41.5q13 -15 43.5 -10t58.5 28q33 30 50.5 60.5t21.5 54.5z" />
    <glyph glyph-name="existential" unicode="&#x2203;" horiz-adv-x="525" 
d="M441 750v-720h-395v77h303v228h-291v76h291v262h-312v77h404z" />
    <glyph glyph-name="uni2206" unicode="&#x2206;" horiz-adv-x="940" 
d="M450 659q3 6 8 14t13 10q7 1 13 -7.5t9 -14.5l289 -622l9 -21q6 -17 -0.5 -23.5t-29.5 -6.5h-590q-21 0 -27.5 4.5t-0.5 18.5l7 15zM448 569l-244 -513h482z" />
    <glyph glyph-name="gradient" unicode="&#x2207;" horiz-adv-x="940" 
d="M460 45l-370 628h736zM459 166l261 447h-523z" />
    <glyph glyph-name="element" unicode="&#x2208;" horiz-adv-x="940" 
d="M169 313q2 -17 12 -42q7 -20 23 -43t43 -43q57 -42 123 -42h421v-69h-414q-84 0 -161 44q-51 30 -87 83t-38 128q-4 89 32 150.5t103 104.5q65 41 151 41h411v-69h-423q-40 0 -86 -23q-41 -21 -65 -53t-32 -54q-11 -26 -13 -45h621v-68h-621z" />
    <glyph glyph-name="notelement" unicode="&#x2209;" horiz-adv-x="940" 
d="M442 121l-25 -93l-33 9l23 88q-26 3 -62.5 14.5t-70.5 35.5q-45 31 -76 74.5t-32 108.5q-2 54 29 102.5t82 82.5q25 16 50 26.5t45 15.5q21 6 34.5 8t15.5 2h111l25 93l33 -9l-22 -84h190v-36h-200l-49 -181h249v-35h-259l-49 -186h308v-36h-317zM474 378l49 181h-96
q-3 0 -17.5 -2t-36.5 -10q-22 -7 -49.5 -21t-55.5 -38q-24 -21 -36.5 -40t-18.5 -35q-6 -15 -6.5 -24.5t-0.5 -10.5h268zM416 159l49 184h-260q0 -2 1 -13.5t9 -28.5q7 -17 22 -39t42 -44q38 -32 76.5 -44t60.5 -15z" />
    <glyph glyph-name="suchthat" unicode="&#x220b;" horiz-adv-x="940" 
d="M730 313h-620v68h620q-1 19 -12 45q-9 22 -32.5 54t-64.5 53q-46 23 -86 23h-423v69h411q86 0 151 -41q67 -43 103 -104.5t32 -150.5q-2 -75 -38.5 -128t-87.5 -83q-76 -44 -161 -44h-413v69h421q66 0 123 42q27 20 42.5 43t23.5 43q10 25 11 42z" />
    <glyph glyph-name="uni220C" unicode="&#x220c;" horiz-adv-x="940" 
d="M533 592q20 -3 54 -14t70 -35q51 -34 81.5 -82.5t30.5 -102.5q-2 -65 -33 -108.5t-75 -74.5q-27 -19 -56 -30t-53 -16q-24 -6 -40 -7t-18 -1h-87l-25 -93l-33 9l22 84h-196v36h206l50 186h-256v35h265l48 181h-313v36h323l25 93l33 -9zM476 378h253q0 1 -1 10.5t-7 24.5
q-6 16 -18.5 35t-35.5 40q-44 37 -83 51.5t-60 17.5zM417 157h81q3 0 18.5 1.5t37.5 7.5t48.5 18.5t52.5 33.5q27 22 42 44t22 39q8 17 9.5 28.5t1.5 13.5h-264z" />
    <glyph glyph-name="product" unicode="&#x220f;" horiz-adv-x="660" 
d="M579 750v-720h-93v644h-311v-644h-93v720h497z" />
    <glyph glyph-name="summation" unicode="&#x2211;" horiz-adv-x="472" 
d="M21 676v74h405v-77h-296l246 -266l-250 -300h309v-77h-414v74l248 303z" />
    <glyph glyph-name="uni2213" unicode="&#x2213;" horiz-adv-x="940" 
d="M151 698h632v-34h-632v34zM151 303v34h298v251h34v-251h300v-34h-300v-239h-34v239h-298z" />
    <glyph glyph-name="radical" unicode="&#x221a;" horiz-adv-x="940" 
d="M119 256l100 139l164 -337l307 770h241v-48h-197l-351 -884l-182 367l-44 -62z" />
    <glyph glyph-name="proportional" unicode="&#x221d;" horiz-adv-x="940" 
d="M305 496q-20 -2 -40 -11.5t-35 -26.5q-17 -17 -26.5 -39t-9.5 -46q-2 -56 31 -93t76 -40q37 -4 63.5 10t44.5 35q20 22 33 44t18 37q-2 4 -11.5 24.5t-27.5 45.5q-20 25 -48 43.5t-68 16.5zM807 521l-42 -57q-11 6 -37.5 18.5t-65.5 8.5q-25 -4 -44.5 -19t-35.5 -35
t-27.5 -41.5t-16.5 -33.5q7 -18 20 -39.5t29 -40.5q14 -19 35 -31.5t52 -14.5q15 -1 30 3.5t28 10.5q11 6 19 11.5t14 11.5l38 -68q-6 -3 -15.5 -10.5t-25.5 -14.5q-18 -9 -41.5 -14t-52.5 -3q-42 4 -71.5 18t-50.5 34q-19 18 -32 38.5t-16 26.5q-4 -8 -22 -32t-46 -45
q-27 -19 -63 -31t-79 -5q-39 6 -71 24t-56 46q-23 28 -35 63t-11 75q1 37 16 70.5t39 59.5q25 26 58.5 42t72.5 19q50 3 87 -12.5t61 -38.5q25 -22 38.5 -44t12.5 -19q2 4 16 25t36 39q21 19 50.5 32.5t70.5 15.5q29 0 49.5 -4t34.5 -11q15 -6 26 -12.5t24 -15.5z" />
    <glyph glyph-name="infinity" unicode="&#x221e;" horiz-adv-x="940" 
d="M460 427q1 4 7 16.5t25 32.5q20 22 52 38.5t78 16.5q35 0 67 -14t56 -37q22 -24 36 -55t14 -67q0 -37 -14 -68t-36 -55q-24 -23 -56 -36.5t-67 -13.5q-46 0 -77 16.5t-51 37.5q-19 20 -26.5 34t-7.5 15q0 -1 -7 -15t-26 -34q-20 -21 -51.5 -37.5t-77.5 -16.5
q-37 0 -68.5 13.5t-54.5 36.5t-36.5 54.5t-13.5 68.5q0 36 13.5 67.5t36.5 54.5t54.5 37t68.5 14q44 0 75.5 -17t51.5 -38q20 -20 27 -32.5t8 -16.5zM193 358q0 -46 31.5 -78t73.5 -32q30 0 52 16t37 37q15 20 22.5 37.5t8.5 19.5q-1 1 -8.5 18.5t-22.5 37.5
q-15 21 -37 37.5t-52 16.5q-42 0 -73.5 -32.5t-31.5 -77.5zM728 358q0 45 -32 77.5t-74 32.5q-31 0 -53 -16.5t-37 -37.5q-16 -20 -23 -37.5t-7 -18.5q0 -2 7 -19.5t23 -36.5q15 -21 37 -36.5t53 -15.5q42 0 74 31t32 77z" />
    <glyph glyph-name="orthogonal" unicode="&#x221f;" horiz-adv-x="940" 
d="M174 656h35v-523h533v-36h-568v559z" />
    <glyph glyph-name="angle" unicode="&#x2220;" horiz-adv-x="940" 
d="M805 48h-653q-7 0 -17 6t-11 16q-4 11 6.5 22.5t15.5 15.5l560 566l50 -46l-512 -515h561v-65z" />
    <glyph glyph-name="uni2222" unicode="&#x2222;" horiz-adv-x="940" 
d="M598 542l145 59l11 -33l-138 -55q18 -31 29 -70t11 -86t-9.5 -85.5t-24.5 -68.5l126 -51l-12 -33l-130 54q-20 -32 -42.5 -55t-41.5 -37q-19 -15 -31.5 -22l-12.5 -7l2 38l8.5 6.5t21.5 18.5t29 30t31 42l-419 171l411 169q-30 39 -55.5 59.5t-26.5 21.5l-2 38
q0 -1 11.5 -7t29.5 -18q17 -13 38 -32.5t41 -46.5zM580 498l-348 -140l355 -141q15 28 24.5 63t9.5 77q-2 42 -13.5 77.5t-27.5 63.5z" />
    <glyph glyph-name="uni2225" unicode="&#x2225;" horiz-adv-x="940" 
d="M550 33v688h48v-688h-48zM422 721v-688h-47v688h47z" />
    <glyph glyph-name="uni2226" unicode="&#x2226;" horiz-adv-x="940" 
d="M592 36h-36v402l-140 -81v-321h-35v300l-166 -95l-17 30l183 105v338h35v-317l140 81v236h36v-217l193 113l17 -30l-210 -121v-423z" />
    <glyph glyph-name="logicaland" unicode="&#x2227;" horiz-adv-x="940" 
d="M140 77l278 562q11 22 38.5 22t38.5 -22l281 -562l-71 -32l-247 501l-250 -510z" />
    <glyph glyph-name="logicalor" unicode="&#x2228;" horiz-adv-x="940" 
d="M141 648l68 41l250 -510l247 502l70 -33l-279 -562q-10 -21 -38.5 -21.5t-39.5 21.5z" />
    <glyph glyph-name="intersection" unicode="&#x2229;" horiz-adv-x="940" 
d="M461 638q-49 0 -91 -22.5t-68 -62.5q-32 -49 -32 -131v-416h-80v427q0 85 38 145q37 60 97.5 95.5t134.5 35.5h2q74 0 134.5 -35.5t97.5 -95.5q38 -60 38 -145v-427h-80v416q0 82 -32 131q-27 40 -68.5 62.5t-90.5 22.5z" />
    <glyph glyph-name="union" unicode="&#x222a;" horiz-adv-x="940" 
d="M461 74q49 0 90.5 22.5t68.5 62.5q32 49 32 131v416h80v-427q0 -85 -38 -145q-37 -60 -97.5 -95.5t-134.5 -35.5h-2q-74 0 -134.5 35.5t-97.5 95.5q-38 60 -38 145v427h80v-416q0 -82 32 -131q26 -40 68 -62.5t91 -22.5z" />
    <glyph glyph-name="integral" unicode="&#x222b;" horiz-adv-x="940" 
d="M628 672q-10 -20 -27.5 -24.5t-32.5 -0.5q-15 5 -23.5 12t-10.5 9q-9 -5 -16.5 -24.5t-11.5 -48.5q-5 -29 -7.5 -62.5t-3.5 -65.5q-2 -30 -3.5 -56.5t-3.5 -52.5q-2 -25 -4 -51.5t-5 -56.5q-13 -111 -47.5 -184t-101.5 -86q-22 -4 -38 2.5t-25 17.5q-10 12 -11.5 26
t4.5 26q11 20 27.5 25t31.5 2q14 -5 23 -11l9 -6q14 5 22.5 24.5t13.5 47.5q4 28 4.5 61t2.5 65q3 49 5 92.5t6 85.5t11.5 84t21.5 89q15 52 45.5 93.5t85.5 43.5q30 0 51.5 -22t7.5 -54z" />
    <glyph glyph-name="uni222C" unicode="&#x222c;" horiz-adv-x="940" 
d="M506 672q-10 -20 -27.5 -24.5t-32.5 -0.5q-15 5 -23.5 12t-10.5 9q-9 -5 -16.5 -24.5t-11.5 -48.5q-5 -29 -7.5 -62.5t-3.5 -65.5q-2 -30 -3.5 -56.5t-3.5 -52.5q-2 -25 -4 -51.5t-5 -56.5q-13 -111 -47.5 -184t-101.5 -86q-22 -4 -38 2.5t-25 17.5q-10 12 -11.5 26
t4.5 26q11 20 27.5 25t31.5 2q14 -5 23 -11l9 -6q14 5 22.5 24.5t13.5 47.5q4 28 4.5 61t2.5 65q3 49 5 92.5t6 85.5t11.5 84t21.5 89q15 52 45.5 93.5t85.5 43.5q30 0 51.5 -22t7.5 -54zM763 672q-10 -20 -27.5 -24.5t-32.5 -0.5q-15 5 -23.5 12t-10.5 9q-9 -5 -16.5 -24.5
t-11.5 -48.5q-5 -29 -7.5 -62.5t-3.5 -65.5q-2 -30 -3.5 -56.5t-3.5 -52.5q-2 -25 -4 -51.5t-5 -56.5q-13 -111 -47.5 -184t-101.5 -86q-22 -4 -38 2.5t-25 17.5q-10 12 -11.5 26t4.5 26q11 20 27.5 25t31.5 2q14 -5 23 -11l9 -6q14 5 22.5 24.5t13.5 47.5q4 28 4.5 61
t2.5 65q3 49 5 92.5t6 85.5t11.5 84t21.5 89q15 52 45.5 93.5t85.5 43.5q30 0 51.5 -22t7.5 -54z" />
    <glyph glyph-name="uni222E" unicode="&#x222e;" horiz-adv-x="940" 
d="M345 21q-2 -9 -8.5 -17l-6.5 -8q17 3 27.5 21.5t16.5 60.5l11 90q-26 11 -47.5 32t-36.5 48q-13 27 -18 57t1 60q10 63 58 105t105 46l2 10q21 115 69.5 160.5t108.5 32.5q29 -7 48.5 -29t13.5 -52q-6 -26 -24 -39t-42 -6q-21 5 -31 20t-8 30q2 10 5 17t4 10
q-4 -1 -18.5 -19t-18.5 -51l-11 -101q46 -26 79.5 -79t22.5 -117q-12 -65 -59.5 -108t-103.5 -43l-1 -4q-30 -119 -69 -167t-112 -33q-30 4 -48 29t-12 55q4 23 22 36t41 9q21 -4 32 -19t8 -37zM434 457q-30 -3 -55.5 -30t-32.5 -74q-9 -46 7 -80.5t42 -46.5zM533 437
l-38 -230q26 3 54 28.5t35 76.5q9 45 -9 78t-42 47z" />
    <glyph glyph-name="therefore" unicode="&#x2234;" horiz-adv-x="940" 
d="M222 128q-31 0 -50 21t-19 47t20.5 45.5t49.5 19.5q30 0 50 -19.5t20 -47.5q0 -26 -20.5 -46t-50.5 -20zM693 128q-32 0 -51 21t-19 47t20.5 45.5t50.5 19.5t49.5 -19.5t19.5 -47.5q0 -26 -20.5 -46t-49.5 -20zM455 521q-30 0 -49.5 20.5t-19.5 48.5q0 26 20.5 45
t49.5 19q30 0 50.5 -20t20.5 -46q0 -27 -21.5 -47t-50.5 -20z" />
    <glyph glyph-name="uni2235" unicode="&#x2235;" horiz-adv-x="940" 
d="M222 629q30 0 52.5 -21.5t22.5 -49.5q0 -32 -21 -52.5t-53 -20.5q-30 0 -52 20t-22 51q0 27 20 50t53 23zM693 629q30 0 52 -21.5t22 -49.5q0 -32 -21 -52.5t-52 -20.5t-52.5 20t-21.5 51q0 27 19.5 50t53.5 23zM455 236q30 0 52.5 -22t22.5 -51t-21.5 -50t-52.5 -21
q-30 0 -52 20t-22 49t20 52t53 23z" />
    <glyph glyph-name="uni2237" unicode="&#x2237;" horiz-adv-x="940" 
d="M737 541h-94v95h94v-95zM276 541h-93v95h93v-95zM737 80h-94v95h94v-95zM276 80h-93v95h93v-95z" />
    <glyph glyph-name="similar" unicode="&#x223c;" horiz-adv-x="940" 
d="M88 294q3 48 21 89t47 72t70 48.5t90 13.5q53 -6 92.5 -33t73.5 -59q15 -16 30 -30.5t30 -25.5q15 -12 30.5 -19.5t30.5 -8.5q33 -3 56.5 7t38.5 29q16 18 25.5 43t15.5 56h98q-7 -48 -24.5 -88.5t-47.5 -71.5q-29 -31 -72.5 -48.5t-101.5 -13.5q-49 3 -88.5 32t-71.5 61
q-17 15 -32 29.5t-30 25.5q-15 12 -29.5 19t-29.5 9q-61 6 -90.5 -34t-36.5 -102h-95z" />
    <glyph glyph-name="uni223D" unicode="&#x223d;" horiz-adv-x="940" 
d="M366 461q-7 0 -16 6.5t-22 13.5t-28.5 12t-31.5 5q-39 -3 -72 -34.5t-37 -77.5q-7 -59 26.5 -99.5t87.5 -43.5q32 -2 57.5 15t46.5 44q21 25 35.5 55t25.5 53q17 30 36.5 59t45.5 52q25 22 58 35t75 10q69 -4 115 -42.5t68 -100.5q13 -43 6 -86.5t-31 -79.5
q-23 -36 -62 -61t-87 -29q-30 -2 -54.5 3t-43.5 14q-17 7 -29 15t-16 14l35 63q10 -7 29 -18t46 -16q26 -5 55 2.5t55 41.5q23 31 26 67t-12 67q-13 31 -40 52.5t-61 24.5q-46 1 -78 -26.5t-62 -83.5q-11 -18 -28 -54.5t-45 -72.5q-29 -36 -71 -62.5t-101 -23.5
q-38 1 -71.5 14.5t-59.5 39.5q-26 24 -42 62t-16 89q-1 29 12.5 62t38.5 61q26 28 61.5 46.5t79.5 18.5q29 -1 51 -7t38 -14q17 -8 25.5 -14.5t14.5 -11.5z" />
    <glyph glyph-name="uni2243" unicode="&#x2243;" horiz-adv-x="940" 
d="M787 151h-619v35h619v-35zM165 401q9 11 24.5 29.5t37.5 36.5q22 17 50 29t64 10q45 -4 74 -17t55 -27q26 -15 56.5 -27t78.5 -15q27 -2 52.5 4.5t47.5 17.5q23 11 41 24t31 25q3 3 8.5 -3t3.5 -9q-6 -11 -22.5 -27.5t-41.5 -31.5q-24 -15 -54 -26t-63 -11
q-41 -1 -69.5 8t-53.5 22q-24 12 -50 25.5t-60 22.5q-37 8 -63 4.5t-48 -13.5q-22 -11 -42.5 -27.5t-45.5 -32.5q-9 -7 -11.5 -1t0.5 10z" />
    <glyph glyph-name="congruent" unicode="&#x2245;" horiz-adv-x="940" 
d="M787 196h-619v34h619v-34zM787 47h-619v34h619v-34zM165 417q9 11 24.5 30t37.5 37q22 17 50 29t64 9q45 -4 74 -16.5t55 -26.5q26 -15 56.5 -27t78.5 -15q27 -2 52.5 4.5t47.5 17.5q23 11 41 24t31 24q3 3 8.5 -2.5t3.5 -8.5q-6 -11 -22.5 -27.5t-41.5 -31.5
q-24 -15 -54 -26t-63 -11q-41 -1 -69.5 8t-53.5 21q-24 13 -50 26t-60 22q-37 8 -63 4.5t-48 -13.5q-22 -11 -42.5 -27.5t-45.5 -32.5q-9 -6 -11.5 0t0.5 9z" />
    <glyph glyph-name="approxequal" unicode="&#x2248;" horiz-adv-x="940" 
d="M165 409q9 11 24.5 29.5t37.5 36.5q22 17 50 29t64 10q45 -4 74 -16.5t55 -26.5q26 -15 56.5 -27.5t78.5 -15.5q27 -2 52.5 5t47.5 18q23 11 41 24t31 24q3 3 8.5 -2.5t3.5 -9.5q-6 -11 -22.5 -27t-41.5 -31q-24 -16 -54 -26.5t-63 -10.5q-41 -1 -69.5 8t-53.5 21
q-24 13 -50 26t-60 22q-37 8 -63 4.5t-48 -13.5q-22 -11 -42.5 -27.5t-45.5 -32.5q-9 -6 -11.5 -0.5t0.5 9.5zM165 145q9 11 24.5 29.5t37.5 36.5q22 17 50 29t64 10q45 -4 74 -16.5t55 -26.5q26 -15 56.5 -27.5t78.5 -15.5q27 -2 52.5 5t47.5 18q23 11 41 24t31 24
q3 3 8.5 -2.5t3.5 -9.5q-6 -11 -22.5 -27t-41.5 -31q-24 -16 -54 -26.5t-63 -10.5q-41 -1 -69.5 8t-53.5 21q-24 13 -50 26t-60 22q-37 8 -63 4.5t-48 -13.5q-22 -11 -42.5 -27.5t-45.5 -32.5q-9 -6 -11.5 -0.5t0.5 9.5z" />
    <glyph glyph-name="uni2250" unicode="&#x2250;" horiz-adv-x="940" 
d="M119 377h678v-36h-678v36zM119 203h678v-36h-678v36zM460 602q28 0 43 -18.5t15 -39.5q0 -22 -14.5 -40t-43.5 -18t-43.5 17.5t-14.5 39.5q0 21 14 40t44 19z" />
    <glyph glyph-name="uni2251" unicode="&#x2251;" horiz-adv-x="940" 
d="M811 488v-37h-676v37h676zM811 311v-36h-676v36h676zM470 677q30 -1 44.5 -20t14.5 -41q-1 -22 -16 -39.5t-43 -17.5q-30 0 -44.5 18.5t-14.5 40.5t14.5 40.5t44.5 18.5zM470 200q30 0 44.5 -19t14.5 -41q-1 -22 -15.5 -40t-43.5 -18q-30 0 -44.5 18.5t-14.5 40.5
t14.5 40.5t44.5 18.5z" />
    <glyph glyph-name="uni2252" unicode="&#x2252;" horiz-adv-x="940" 
d="M334 631q0 -23 -18 -39.5t-45 -16.5q-24 0 -40.5 17.5t-16.5 43.5q0 21 17.5 38.5t44.5 17.5q23 0 40.5 -18t17.5 -43zM804 429h-684v70h684v-70zM804 271h-684v71h684v-71zM707 138q0 -22 -18.5 -39t-43.5 -17q-23 0 -40 17.5t-17 43.5q0 20 17.5 37.5t44.5 17.5
q21 0 39 -18t18 -42z" />
    <glyph glyph-name="uni2253" unicode="&#x2253;" horiz-adv-x="940" 
d="M334 139q0 -25 -17.5 -43t-40.5 -18q-27 0 -44.5 17.5t-17.5 38.5q0 26 16.5 43.5t40.5 17.5q27 0 45 -16.5t18 -39.5zM804 341v-70h-684v70h684zM804 499v-70h-684v70h684zM707 632q0 -24 -18 -42t-39 -18q-27 0 -44.5 17.5t-17.5 37.5q0 26 17 43.5t40 17.5
q25 0 43.5 -17t18.5 -39z" />
    <glyph glyph-name="uni225A" unicode="&#x225a;" horiz-adv-x="940" 
d="M777 140h-619v34h619v-34zM777 27h-619v34h619v-34zM705 650l-227 -446l-226 446h39l187 -370l188 370h39z" />
    <glyph glyph-name="notequal" unicode="&#x2260;" horiz-adv-x="940" 
d="M773 251h-323l-61 -170l-87 15l58 155h-195v76h221l42 121h-263v77h289l59 173l83 -17l-51 -156h228v-77h-255l-41 -121h296v-76z" />
    <glyph glyph-name="equivalence" unicode="&#x2261;" horiz-adv-x="940" 
d="M802 505h-684v60h684v-60zM802 358h-684v60h684v-60zM802 211h-684v60h684v-60z" />
    <glyph glyph-name="uni2262" unicode="&#x2262;" horiz-adv-x="940" 
d="M122 560h414l68 119l30 -16l-59 -103h222v-34h-242l-71 -122h313v-33h-332l-68 -120h400v-34h-420l-78 -134l-29 17l69 117h-217v35h237l68 119h-305v33h325l69 122h-394v34z" />
    <glyph glyph-name="lessequal" unicode="&#x2264;" horiz-adv-x="940" 
d="M789 242l-36 -71l-601 251q-10 4 -17.5 10.5t-7.5 17.5q0 10 6 15.5t19 11.5l600 251l31 -72l-491 -205zM805 56h-690v81h690v-81z" />
    <glyph glyph-name="greaterequal" unicode="&#x2265;" horiz-adv-x="940" 
d="M802 450q0 -11 -7.5 -17.5t-17.5 -10.5l-601 -251l-36 71l497 209l-490 204l29 73l601 -251q12 -6 18.5 -11.5t6.5 -15.5zM814 56h-691v81h691v-81z" />
    <glyph glyph-name="uni2266" unicode="&#x2266;" horiz-adv-x="940" 
d="M744 720l11 -33l-534 -208l535 -188l-13 -35l-564 200q-3 0 -8.5 2t-10.5 4q-6 3 -10 6t-4 8q0 4 3.5 7.5t8.5 5.5q5 3 9 5l6 3zM151 189v34h619v-34h-619zM151 59v34h619v-34h-619z" />
    <glyph glyph-name="uni2267" unicode="&#x2267;" horiz-adv-x="940" 
d="M184 715l571 -222q1 -1 5.5 -3t9.5 -5q4 -2 8 -5.5t4 -7.5q0 -5 -4.5 -8.5t-10.5 -5.5q-5 -3 -10.5 -5t-7.5 -2l-564 -199l-12 35l534 187l-534 208zM777 187h-619v34h619v-34zM777 58h-619v34h619v-34z" />
    <glyph glyph-name="uni226A" unicode="&#x226a;" horiz-adv-x="940" 
d="M577 696l39 -49l-431 -280l425 -287l-38 -49l-504 337zM798 696l35 -49l-431 -280l426 -287l-37 -49l-506 337z" />
    <glyph glyph-name="uni226B" unicode="&#x226b;" horiz-adv-x="940" 
d="M328 696l510 -328l-505 -337l-37 49l426 287l-432 280zM108 696l513 -328l-507 -337l-36 49l426 287l-431 280z" />
    <glyph glyph-name="uni226E" unicode="&#x226e;" horiz-adv-x="940" 
d="M519 556l39 142l33 -9l-29 -111l194 99l17 -32l-224 -113l-80 -297l299 -158l-19 -31l-289 153l-43 -161l-33 9l45 169l-241 128q-32 16 -32 22t27 19zM438 251l69 260l-287 -144z" />
    <glyph glyph-name="uni226F" unicode="&#x226f;" horiz-adv-x="940" 
d="M498 486l-76 -286l314 167zM773 385q27 -13 27 -19t-32 -22q-3 -2 -359 -192l-30 -114l-34 9l23 83l-161 -84l-18 31l191 101l87 324l-283 143l17 32l275 -141l43 162l33 -9l-45 -169q264 -134 266 -135z" />
    <glyph glyph-name="uni2270" unicode="&#x2270;" horiz-adv-x="940" 
d="M454 358l-262 93q-33 12 -33 21q0 8 27 21l339 132l41 154l32 -8l-35 -131l194 75l11 -33l-216 -83l-58 -217l275 -95l-13 -35l-271 95l-33 -126h328l3 -34h-340l-26 -95h366v-34h-375l-32 -121l-33 8l30 113h-209v34h218l26 95h-244v34h253zM514 584l-280 -110l229 -81z
" />
    <glyph glyph-name="uni2271" unicode="&#x2271;" horiz-adv-x="940" 
d="M498 397l219 77l-179 69zM758 450q-2 -1 -271 -94l-35 -135h335v-34h-344l-26 -95h370v-34h-379l-32 -121l-33 8l30 113h-205v34h214l26 95h-240v34h249l32 121l-254 -90l-12 35l278 97l45 172l-323 126l11 33l322 -125l50 189l32 -8l-51 -194q215 -83 218 -84
q27 -13 27 -21q0 -11 -34 -22z" />
    <glyph glyph-name="uni2272" unicode="&#x2272;" horiz-adv-x="940" 
d="M754 710l11 -33l-523 -209l524 -187l-13 -35l-602 220zM154 62q9 11 24.5 30t37.5 36q22 18 50 29.5t64 9.5q45 -4 74 -16.5t55 -26.5q27 -15 57 -27t78 -15q27 -2 52.5 4.5t47.5 17.5q23 11 41 24t31 24q3 3 8 -2.5t4 -9.5q-6 -11 -22.5 -27t-41.5 -31q-24 -15 -54 -26
t-63 -11q-41 -1 -69.5 8t-53.5 21q-24 13 -50 26t-60 22q-37 8 -63 4.5t-48 -13.5q-22 -11 -42.5 -27.5t-45.5 -32.5q-9 -6 -11.5 0t0.5 9z" />
    <glyph glyph-name="uni2273" unicode="&#x2273;" horiz-adv-x="940" 
d="M176 710l603 -244l-602 -220l-13 35l524 187l-523 209zM154 62q9 11 24.5 30t37.5 36q22 18 50 29.5t64 9.5q45 -4 74 -16.5t55 -26.5q27 -15 57 -27t78 -15q27 -2 52.5 4.5t47.5 17.5q23 11 41 24t31 24q3 3 8 -2.5t4 -9.5q-6 -11 -22.5 -27t-41.5 -31q-24 -15 -54 -26
t-63 -11q-41 -1 -69.5 8t-53.5 21q-24 13 -50 26t-60 22q-37 8 -63 4.5t-48 -13.5q-22 -11 -42.5 -27.5t-45.5 -32.5q-9 -6 -11.5 0t0.5 9z" />
    <glyph glyph-name="uni2276" unicode="&#x2276;" horiz-adv-x="940" 
d="M169 487l618 184v-37l-514 -147l515 -146v-37zM787 240l-619 -184v36l515 148l-514 146v37z" />
    <glyph glyph-name="uni2277" unicode="&#x2277;" horiz-adv-x="940" 
d="M786 487l-619 -183v37l515 146l-514 147v37zM168 240l618 183v-37l-514 -146l515 -148v-36z" />
    <glyph glyph-name="uni2279" unicode="&#x2279;" horiz-adv-x="940" 
d="M412 200l24 87l-164 -47zM500 402l-19 -69l305 90v-37l-314 -89l-27 -107l342 -98v-36l-351 104l-45 -167l-33 8l45 169l-235 70l277 82l18 69l-296 -87v37l305 86l31 112l-335 95v37l342 -102l40 148l33 -8l-41 -149l244 -73zM535 529l-25 -91l172 49z" />
    <glyph glyph-name="uni227A" unicode="&#x227a;" horiz-adv-x="940" 
d="M234 347q-41 12 -59.5 16.5l-18.5 4.5q124 32 210 63q239 89 380 197l12 -36q-112 -82 -249 -143q-152 -68 -251 -81q38 -7 94.5 -23.5t155.5 -60.5q137 -61 250 -143l-12 -36q-142 110 -381 197q-68 25 -131 45z" />
    <glyph glyph-name="uni227B" unicode="&#x227b;" horiz-adv-x="940" 
d="M705 346q-63 -20 -131 -45q-239 -87 -381 -197l-12 36q113 82 250 143q99 44 155.5 60.5t94.5 23.5q-99 13 -251 81q-137 61 -249 143l12 36q141 -108 380 -197q86 -31 210 -63l-18.5 -4.5t-59.5 -16.5z" />
    <glyph glyph-name="uni2280" unicode="&#x2280;" horiz-adv-x="940" 
d="M486 256v-228h-33v243q-170 69 -289 97q159 38 289 93v244h33v-228q159 65 268 150l12 -36q-113 -83 -246 -140l-34 -15v-139l30 -14q137 -61 250 -143l-12 -36q-150 107 -268 152zM453 311v111q-95 -40 -187 -55q109 -23 187 -56z" />
    <glyph glyph-name="uni2281" unicode="&#x2281;" horiz-adv-x="940" 
d="M452 256q-118 -45 -268 -152l-12 36q113 82 250 143l30 14v139l-34 15q-133 57 -246 140l12 36q109 -85 268 -150v228h33v-244q130 -55 289 -93q-119 -28 -289 -97v-243h-33v228zM485 311q78 33 187 56q-92 15 -187 55v-111z" />
    <glyph glyph-name="propersubset" unicode="&#x2282;" horiz-adv-x="940" 
d="M196 355q0 -50 25.5 -97.5t55.5 -66.5q60 -37 134 -37h400v-69h-412q-80 0 -145 34q-57 28 -98.5 95t-41.5 140v9q0 73 43.5 141t96.5 94q66 34 145 34h412v-69h-400q-74 0 -134 -37q-30 -19 -55.5 -66.5t-25.5 -97.5v-7z" />
    <glyph glyph-name="propersuperset" unicode="&#x2283;" horiz-adv-x="940" 
d="M728 355v7q0 50 -25.5 97.5t-56.5 66.5q-59 37 -134 37h-399v69h411q80 0 146 -34q52 -26 96 -94t44 -141v-9q0 -73 -42 -140t-98 -95q-65 -34 -146 -34h-411v69h399q75 0 134 37q31 19 56.5 66.5t25.5 97.5z" />
    <glyph glyph-name="notsubset" unicode="&#x2284;" horiz-adv-x="940" 
d="M465 131l-24 -93l-33 9l23 85q-82 8 -141 46q-117 78 -117 190q0 124 130 198q67 38 153 39h101l25 93l33 -9l-22 -84h173v-36h-183l-109 -402h292v-36h-301zM212 367q0 -98 105 -161q53 -33 123 -39l107 402h-92q-73 -2 -135 -38q-108 -63 -108 -164z" />
    <glyph glyph-name="uni2285" unicode="&#x2285;" horiz-adv-x="940" 
d="M376 167h109q70 6 123 38q106 63 106 161q-7 107 -109 166q-51 30 -123 37zM366 131l-25 -93l-33 9l22 84h-170v36h180l108 402h-288v36h298l24 93l33 -9l-23 -85q75 -8 130 -39q131 -74 131 -198q0 -112 -118 -190q-59 -38 -141 -46h-128z" />
    <glyph glyph-name="reflexsubset" unicode="&#x2286;" horiz-adv-x="940" 
d="M816 631h-427q-50 0 -100 -28q-39 -22 -66 -65.5t-25 -96.5q2 -47 27 -86.5t50 -55.5q51 -31 118 -31h423v-65h-435q-72 0 -128 28q-51 24 -90 72.5t-45 113.5q-9 77 26.5 140.5t106.5 105.5q57 33 130 33h435v-65zM112 110h715v-64h-715v64z" />
    <glyph glyph-name="reflexsuperset" unicode="&#x2287;" horiz-adv-x="940" 
d="M828 110v-64h-715v64h715zM123 631v65h435q73 0 129 -33q72 -42 107.5 -105.5t26.5 -140.5q-6 -65 -45 -113.5t-90 -72.5q-56 -28 -129 -28h-434v65h422q68 0 118 31q26 16 51 55.5t27 86.5q2 53 -25 96.5t-66 65.5q-50 28 -101 28h-426z" />
    <glyph glyph-name="uni228A" unicode="&#x228a;" horiz-adv-x="940" 
d="M491 259h-35q-8 0 -25 1t-39 5t-45.5 11t-44.5 19q-20 10 -41.5 27.5t-39.5 40.5q-17 23 -28 52t-10 63q2 65 37 109t82 70q22 12 46.5 19.5t46.5 10.5q22 4 38.5 5.5t23.5 1.5h320v-36h-321q-6 0 -21 -1t-35 -4q-19 -3 -40 -9t-39 -16q-45 -25 -72 -59.5t-27 -91.5
q-1 -61 29.5 -97t65.5 -53q44 -22 83.5 -27t55.5 -5h321v-36h-250l-14 -49h277v-34h-286l-25 -93h311v-34h-320l-24 -92l-33 9l23 83h-265v34h274l25 93h-299v34h307z" />
    <glyph glyph-name="uni228B" unicode="&#x228b;" horiz-adv-x="940" 
d="M491 259h-320v36h322q15 0 54.5 5t83.5 27q34 17 64.5 53t30.5 97q-1 57 -27 91.5t-71 59.5q-19 10 -40.5 16t-40.5 9q-20 3 -34.5 4t-19.5 1h-322v36h321q6 0 22.5 -1.5t37.5 -5.5q22 -3 46.5 -10.5t47.5 -19.5q47 -26 81.5 -70t37.5 -109q1 -34 -10 -63t-29 -52
q-17 -23 -38.5 -40.5t-41.5 -27.5q-29 -15 -62 -22.5t-57 -10.5l-14 -52h267v-34h-276l-25 -93h301v-34h-310l-24 -92l-33 9l23 83h-275v34h284l25 93h-309v34h317z" />
    <glyph glyph-name="circleplus" unicode="&#x2295;" horiz-adv-x="940" 
d="M132 372h311v308h36v-308h309v-37h-309v-305h-36v305h-311v37zM458 761q86 0 161 -31t131 -84q56 -54 89 -125.5t36 -151.5q3 -85 -28 -162t-87 -135t-134 -92t-168 -33q-85 0 -159.5 32.5t-130.5 87.5t-88.5 128.5t-32.5 156.5q-1 84 31.5 158.5t89.5 129.5
q56 56 131 88t159 33zM460 723q-78 -1 -146.5 -31.5t-118.5 -81.5q-51 -51 -79.5 -118t-27.5 -140q0 -76 29 -142t79 -115q49 -50 115.5 -79t142.5 -30q83 -2 153.5 27.5t121.5 81.5t79 121.5t27 147.5q-3 71 -32 136t-79 115q-50 49 -117.5 78.5t-146.5 29.5z" />
    <glyph glyph-name="uni2296" unicode="&#x2296;" horiz-adv-x="940" 
d="M138 374h656v-37h-656v37zM463 763q87 0 162 -31t131 -85q56 -53 89.5 -125t36.5 -152q3 -85 -28 -161.5t-88 -134.5q-56 -58 -134 -92t-169 -33q-84 0 -158.5 32.5t-129.5 87.5q-56 55 -88.5 128.5t-32.5 156.5q-1 84 31.5 158t88.5 130q56 55 130.5 87.5t158.5 33.5z
M465 725q-78 -1 -146 -31.5t-118 -81.5q-51 -51 -79.5 -118t-27.5 -140q0 -76 29 -142t79 -116q49 -49 115.5 -78t142.5 -30q83 -2 153.5 27.5t122.5 81.5q51 52 79 121.5t26 147.5q-2 71 -31 136t-79 115q-51 49 -119 78.5t-147 29.5z" />
    <glyph glyph-name="circlemultiply" unicode="&#x2297;" horiz-adv-x="940" 
d="M215 139l220 219l-217 217l25 25l217 -217l218 219l27 -26l-219 -218l221 -219l-27 -26l-220 219l-218 -220zM460 770q87 0 163 -34.5t132 -91.5q57 -58 89.5 -133t33.5 -154q0 -86 -33 -162t-90 -133t-133 -90t-162 -32q-82 0 -155 31t-129 85q-55 53 -88.5 126
t-36.5 157q-4 90 28.5 168.5t88.5 136.5q57 58 132.5 91.5t159.5 34.5zM462 731q-78 -1 -147 -31t-120 -83q-52 -52 -80.5 -123.5t-24.5 -154.5q3 -78 33.5 -143.5t81.5 -113.5q50 -47 115.5 -74.5t137.5 -28.5q76 -2 144.5 27t120.5 80q53 51 84 119.5t32 146.5
q0 71 -29 139t-79 122q-51 53 -120 85.5t-149 32.5z" />
    <glyph glyph-name="uni2299" unicode="&#x2299;" horiz-adv-x="940" 
d="M463 743q79 0 149.5 -31t123.5 -84q51 -52 82 -123t31 -151q0 -79 -31 -148.5t-84 -121.5q-52 -52 -124 -82t-152 -30q-81 0 -151.5 29.5t-122.5 82.5q-52 51 -82.5 122t-30.5 153q0 79 30.5 149t82.5 122q54 52 125 82.5t154 30.5zM463 680q-69 0 -128 -25t-104 -68
q-44 -44 -69.5 -102.5t-25.5 -125.5q0 -69 25 -128.5t69 -103.5q45 -44 103 -68.5t125 -24.5t126.5 24.5t103.5 68.5q45 44 70.5 102t25.5 125q0 68 -25.5 127t-70.5 104q-43 44 -101.5 69.5t-123.5 25.5zM463 512q30 0 58 -13t50 -35q20 -22 32.5 -50.5t12.5 -60.5
q0 -30 -12.5 -57.5t-34.5 -47.5q-21 -21 -50 -33t-61 -12t-59.5 12t-49.5 33q-20 22 -32 49.5t-12 60.5q0 31 12 59t33 48q22 21 50.5 34t62.5 13z" />
    <glyph glyph-name="uni22A3" unicode="&#x22a3;" horiz-adv-x="940" 
d="M676 45v295h-480v35h480v289h36v-619h-36z" />
    <glyph glyph-name="uni22A4" unicode="&#x22a4;" horiz-adv-x="940" 
d="M151 568v36h620v-36h-289v-480h-35v480h-296z" />
    <glyph glyph-name="perpendicular" unicode="&#x22a5;" horiz-adv-x="940" 
d="M789 48h-658v68h291v534h76v-534h291v-68z" />
    <glyph glyph-name="uni22BB" unicode="&#x22bb;" horiz-adv-x="940" 
d="M729 657l-268 -525l-265 523l31 17l234 -464l236 464zM142 94h633v-34h-633v34z" />
    <glyph glyph-name="uni22BC" unicode="&#x22bc;" horiz-adv-x="940" 
d="M193 43l267 524l266 -522l-31 -18l-235 465l-235 -465zM780 605h-633v34h633v-34z" />
    <glyph glyph-name="uni22CE" unicode="&#x22ce;" horiz-adv-x="940" 
d="M488 600q20 -63 45 -131q87 -239 197 -381l-36 -12q-82 113 -143 250q-44 99 -60.5 155.5t-23.5 94.5q-13 -99 -81 -251q-61 -137 -143 -249l-36 12q108 141 197 380q31 86 63 210l4.5 -18.5t16.5 -59.5z" />
    <glyph glyph-name="uni22CF" unicode="&#x22cf;" horiz-adv-x="940" 
d="M488 126q-12 -41 -16.5 -59.5l-4.5 -18.5q-32 124 -63 210q-89 239 -197 380l36 12q82 -112 143 -249q68 -152 81 -251q7 38 23.5 94.5t60.5 155.5q61 137 143 250l36 -12q-110 -142 -197 -381q-25 -68 -45 -131z" />
    <glyph glyph-name="uni22DA" unicode="&#x22da;" horiz-adv-x="940" 
d="M171 584l619 152v-37l-501 -115l501 -117v-37zM170 382h619v-33h-619v33zM787 146l-618 -154v37l500 117l-500 115v37z" />
    <glyph glyph-name="uni22DB" unicode="&#x22db;" horiz-adv-x="940" 
d="M787 584l-618 -154v37l500 117l-500 115v37zM789 382v-33h-619v33h619zM171 146l619 152v-37l-501 -115l501 -117v-37z" />
    <glyph glyph-name="uni22EE" unicode="&#x22ee;" horiz-adv-x="940" 
d="M506 595h-93v95h93v-95zM506 311h-93v93h93v-93zM506 25h-93v95h93v-95z" />
    <glyph glyph-name="uni2306" unicode="&#x2306;" horiz-adv-x="940" 
d="M777 554v-34h-619v34h619zM777 668v-34h-619v34h619zM705 45h-39l-188 370l-187 -370h-39l226 446z" />
    <glyph glyph-name="uni2312" unicode="&#x2312;" horiz-adv-x="940" 
d="M806 364h-71q-10 57 -35 100.5t-61 76.5q-37 31 -82.5 48.5t-95.5 17.5q-52 0 -98 -17.5t-82 -48.5q-37 -32 -61.5 -75.5t-34.5 -101.5h-71q10 70 41 126t77 96q45 40 104 63.5t125 23.5q64 0 122 -23.5t104 -63.5t77 -96t42 -126z" />
    <glyph glyph-name="uni2314" unicode="&#x2314;" horiz-adv-x="940" 
d="M722 536q-1 0 -22 11.5t-57 24.5q-35 14 -82.5 25t-100.5 11q-52 -1 -98 -12t-81 -25q-34 -13 -54.5 -24.5l-20.5 -11.5l256 -463zM161 547l24.5 14t66.5 31q41 17 95 31t113 15q60 0 115.5 -14t98.5 -31q42 -17 67.5 -31.5t26.5 -14.5l-308 -537z" />
    <glyph glyph-name="uni2460" unicode="&#x2460;" horiz-adv-x="940" 
d="M464 807q89 0 170.5 -36.5t142.5 -98.5t97 -145.5t36 -177.5q0 -90 -36.5 -170.5t-98.5 -139.5q-62 -60 -146 -95t-178 -35q-91 0 -171.5 35t-140.5 97q-59 61 -94 143.5t-35 177.5q0 89 35 170t96 141q61 62 144 98t179 36zM429 566l-98 -62v83l115 71h68v-592h-85v500z
M463 748q-83 0 -153.5 -31t-124.5 -84q-52 -53 -81.5 -124t-29.5 -151q0 -83 29.5 -154.5t80.5 -123.5q52 -52 120.5 -82t147.5 -30q82 0 153.5 29.5t124.5 81.5q54 52 84.5 121.5t30.5 149.5q0 82 -31 155.5t-83 127.5l-3 3q-53 51 -121.5 81.5t-143.5 30.5z" />
    <glyph glyph-name="uni2461" unicode="&#x2461;" horiz-adv-x="940" 
d="M464 807q89 0 170.5 -36.5t142.5 -98.5t97 -145.5t36 -177.5q0 -90 -36.5 -170.5t-98.5 -139.5q-62 -60 -146 -95t-178 -35q-91 0 -171.5 35t-140.5 97q-59 61 -94 143.5t-35 177.5q0 89 35 170t96 141q61 62 144 98t179 36zM302 139q10 8 18.5 15.5t20.5 18.5
q18 17 45 46t56 63q29 35 55 72.5t42 73.5q6 15 9.5 38t3.5 40q0 11 -4.5 26.5t-14.5 29.5t-26 23.5t-39 9.5q-42 0 -63.5 -26.5t-19.5 -66.5h-87q0 24 7 50.5t27 50.5q19 25 52 42t84 17q32 0 62.5 -11.5t54.5 -33.5q23 -20 37.5 -50t14.5 -67q0 -18 -3.5 -45.5
t-10.5 -46.5q-15 -38 -41.5 -77t-57.5 -75q-31 -35 -59.5 -63.5l-49.5 -49.5h234v-73h-347v69zM463 748q-83 0 -153.5 -31t-124.5 -84q-52 -53 -81.5 -124t-29.5 -151q0 -83 29.5 -154.5t80.5 -123.5q52 -52 120.5 -82t147.5 -30q82 0 153.5 29.5t124.5 81.5
q54 52 84.5 121.5t30.5 149.5q0 82 -31 155.5t-83 127.5l-3 3q-53 51 -121.5 81.5t-143.5 30.5z" />
    <glyph glyph-name="uni2462" unicode="&#x2462;" horiz-adv-x="940" 
d="M464 807q89 0 170.5 -36.5t142.5 -98.5t97 -145.5t36 -177.5q0 -90 -36.5 -170.5t-98.5 -139.5q-62 -60 -146 -95t-178 -35q-91 0 -171.5 35t-140.5 97q-59 61 -94 143.5t-35 177.5q0 89 35 170t96 141q61 62 144 98t179 36zM564 376q5 -2 20 -10t30 -25q15 -18 25 -44
t10 -63q0 -71 -47.5 -122.5t-135.5 -51.5t-131.5 40t-50.5 98h93q1 -26 20 -48.5t66 -22.5q48 0 72.5 30.5t24.5 79.5q0 32 -11.5 52.5t-28.5 31.5q-18 11 -40 16t-49 5v68q38 0 62 4.5t33 15.5q14 17 20.5 32.5t7.5 41.5q0 41 -24.5 66t-60.5 25q-43 0 -64.5 -19.5
t-25.5 -49.5h-84q0 24 10 47t30 42q22 20 54 33.5t77 13.5q32 0 63 -11t55 -30q25 -21 40 -50.5t15 -66.5q0 -29 -9.5 -52t-22.5 -41q-10 -14 -24 -23.5t-19 -11.5zM463 748q-83 0 -153.5 -31t-124.5 -84q-52 -53 -81.5 -124t-29.5 -151q0 -83 29.5 -154.5t80.5 -123.5
q52 -52 120.5 -82t147.5 -30q82 0 153.5 29.5t124.5 81.5q54 52 84.5 121.5t30.5 149.5q0 82 -31 155.5t-83 127.5l-3 3q-53 51 -121.5 81.5t-143.5 30.5z" />
    <glyph glyph-name="uni2463" unicode="&#x2463;" horiz-adv-x="940" 
d="M464 807q89 0 170.5 -36.5t142.5 -98.5t97 -145.5t36 -177.5q0 -90 -36.5 -170.5t-98.5 -139.5q-62 -60 -146 -95t-178 -35q-91 0 -171.5 35t-140.5 97q-59 61 -94 143.5t-35 177.5q0 89 35 170t96 141q61 62 144 98t179 36zM476 225h-228v62l228 375h82v-363h91v-74h-91
v-155h-82v155zM476 533l-137 -234h137v234zM463 748q-83 0 -153.5 -31t-124.5 -84q-52 -53 -81.5 -124t-29.5 -151q0 -83 29.5 -154.5t80.5 -123.5q52 -52 120.5 -82t147.5 -30q82 0 153.5 29.5t124.5 81.5q54 52 84.5 121.5t30.5 149.5q0 82 -31 155.5t-83 127.5l-3 3
q-53 51 -121.5 81.5t-143.5 30.5z" />
    <glyph glyph-name="uni2464" unicode="&#x2464;" horiz-adv-x="940" 
d="M464 807q89 0 170.5 -36.5t142.5 -98.5t97 -145.5t36 -177.5q0 -90 -36.5 -170.5t-98.5 -139.5q-62 -60 -146 -95t-178 -35q-91 0 -171.5 35t-140.5 97q-59 61 -94 143.5t-35 177.5q0 89 35 170t96 141q61 62 144 98t179 36zM395 412q8 5 30 11.5t49 6.5q81 0 130 -52
t49 -132q0 -37 -14 -71t-39 -58q-25 -26 -60.5 -41t-77.5 -15q-46 0 -79.5 12.5t-54.5 32.5q-21 19 -30.5 42t-9.5 50h96q0 -25 16 -48t61 -23t74 32.5t32 88.5q0 53 -28.5 83t-68.5 33q-28 1 -46.5 -10t-34.5 -32h-78l14 331h294v-76h-215zM463 748q-83 0 -153.5 -31
t-124.5 -84q-52 -53 -81.5 -124t-29.5 -151q0 -83 29.5 -154.5t80.5 -123.5q52 -52 120.5 -82t147.5 -30q82 0 153.5 29.5t124.5 81.5q54 52 84.5 121.5t30.5 149.5q0 82 -31 155.5t-83 127.5l-3 3q-53 51 -121.5 81.5t-143.5 30.5z" />
    <glyph glyph-name="uni2465" unicode="&#x2465;" horiz-adv-x="940" 
d="M464 807q89 0 170.5 -36.5t142.5 -98.5t97 -145.5t36 -177.5q0 -90 -36.5 -170.5t-98.5 -139.5q-62 -60 -146 -95t-178 -35q-91 0 -171.5 35t-140.5 97q-59 61 -94 143.5t-35 177.5q0 89 35 170t96 141q61 62 144 98t179 36zM463 748q-83 0 -153.5 -31t-124.5 -84
q-52 -53 -81.5 -124t-29.5 -151q0 -83 29.5 -154.5t80.5 -123.5q52 -52 120.5 -82t147.5 -30q82 0 153.5 29.5t124.5 81.5q54 52 84.5 121.5t30.5 149.5q0 82 -31 155.5t-83 127.5l-3 3q-53 51 -121.5 81.5t-143.5 30.5zM364 249q7 -52 31.5 -87t70.5 -35q37 0 63 32t26 89
q0 50 -24.5 82t-66.5 32q-44 0 -80 -30v70q45 27 96 27q39 0 69 -15t51 -41q20 -25 31 -57.5t11 -67.5t-11.5 -68t-32.5 -59q-22 -27 -55 -43.5t-77 -17.5q-46 0 -79 15.5t-56 41.5q-23 27 -36 62t-18 74q-3 25 -4.5 54.5t-1.5 56.5q0 49 7.5 101.5t29.5 96.5
q22 43 60.5 71.5t99.5 28.5q42 0 73 -13.5t50 -33.5q20 -20 29.5 -42.5t9.5 -46.5h-91q0 24 -17.5 47t-57.5 23q-27 0 -46.5 -16t-33.5 -43q-13 -27 -20 -63t-7 -75v-28q1 -75 7 -122z" />
    <glyph glyph-name="uni2466" unicode="&#x2466;" horiz-adv-x="940" 
d="M464 807q89 0 170.5 -36.5t142.5 -98.5t97 -145.5t36 -177.5q0 -90 -36.5 -170.5t-98.5 -139.5q-62 -60 -146 -95t-178 -35q-91 0 -171.5 35t-140.5 97q-59 61 -94 143.5t-35 177.5q0 89 35 170t96 141q61 62 144 98t179 36zM552 574h-263v76h357v-64l-211 -520h-87z
M463 748q-83 0 -153.5 -31t-124.5 -84q-52 -53 -81.5 -124t-29.5 -151q0 -83 29.5 -154.5t80.5 -123.5q52 -52 120.5 -82t147.5 -30q82 0 153.5 29.5t124.5 81.5q54 52 84.5 121.5t30.5 149.5q0 82 -31 155.5t-83 127.5l-3 3q-53 51 -121.5 81.5t-143.5 30.5z" />
    <glyph glyph-name="uni2467" unicode="&#x2467;" horiz-adv-x="940" 
d="M464 807q89 0 170.5 -36.5t142.5 -98.5t97 -145.5t36 -177.5q0 -90 -36.5 -170.5t-98.5 -139.5q-62 -60 -146 -95t-178 -35q-91 0 -171.5 35t-140.5 97q-59 61 -94 143.5t-35 177.5q0 89 35 170t96 141q61 62 144 98t179 36zM371 505q0 -35 12 -56.5t42 -35.5q6 -2 16 -4
t23 -2q39 0 61.5 27.5t23.5 69.5q0 44 -24.5 69t-64.5 25q-37 0 -63 -25t-26 -68zM361 236q0 -20 4.5 -39t15.5 -35t30.5 -26t50.5 -10q45 0 70 27.5t27 81.5q0 41 -25.5 72t-73.5 33q-41 0 -69.5 -28.5t-29.5 -75.5zM364 377q-4 1 -18 9t-27 22q-14 16 -23 40.5t-9 61.5
q0 29 12 56.5t34 47.5q23 22 55.5 35t72.5 13q33 0 65.5 -12.5t54.5 -30.5q24 -21 38.5 -48.5t14.5 -58.5t-9 -55.5t-21 -41.5q-11 -17 -23 -27.5t-19 -14.5q10 -4 23 -14t24 -24q14 -19 24.5 -45t10.5 -61q0 -78 -51 -123t-133 -46q-77 0 -130.5 43t-53.5 129q0 34 9.5 60
t25.5 45q11 13 27.5 25t25.5 15zM463 748q-83 0 -153.5 -31t-124.5 -84q-52 -53 -81.5 -124t-29.5 -151q0 -83 29.5 -154.5t80.5 -123.5q52 -52 120.5 -82t147.5 -30q82 0 153.5 29.5t124.5 81.5q54 52 84.5 121.5t30.5 149.5q0 82 -31 155.5t-83 127.5l-3 3
q-53 51 -121.5 81.5t-143.5 30.5z" />
    <glyph glyph-name="uni2468" unicode="&#x2468;" horiz-adv-x="940" 
d="M464 807q89 0 170.5 -36.5t142.5 -98.5t97 -145.5t36 -177.5q0 -90 -36.5 -170.5t-98.5 -139.5q-62 -60 -146 -95t-178 -35q-91 0 -171.5 35t-140.5 97q-59 61 -94 143.5t-35 177.5q0 89 35 170t96 141q61 62 144 98t179 36zM463 748q-83 0 -153.5 -31t-124.5 -84
q-52 -53 -81.5 -124t-29.5 -151q0 -83 29.5 -154.5t80.5 -123.5q52 -52 120.5 -82t147.5 -30q82 0 153.5 29.5t124.5 81.5q54 52 84.5 121.5t30.5 149.5q0 82 -31 155.5t-83 127.5l-3 3q-53 51 -121.5 81.5t-143.5 30.5zM539 305q-39 -19 -89 -19q-38 0 -68 14.5t-52 40.5
t-33 59.5t-11 72.5q0 38 12.5 72t36.5 60t56.5 41.5t72.5 15.5q45 0 76.5 -16.5t53.5 -43.5q21 -27 33.5 -61.5t18.5 -71.5q2 -25 3.5 -59t1.5 -60q0 -50 -7.5 -101t-27.5 -93t-57 -68.5t-96 -26.5q-39 0 -70.5 12t-52.5 31t-32 42.5t-11 51.5h95q0 -25 15 -48t57 -23
q29 0 49 18t31 46q12 28 17 62t5 64q0 111 -4 148q-2 20 -8.5 46t-16.5 44q-12 17 -29.5 27.5t-43.5 12.5q-41 0 -66 -32t-27 -87q0 -53 23.5 -88t70.5 -36q38 0 74 25v-72z" />
    <glyph glyph-name="uni2469" unicode="&#x2469;" horiz-adv-x="940" 
d="M464 807q89 0 170.5 -36.5t142.5 -98.5t97 -145.5t36 -177.5q0 -90 -36.5 -170.5t-98.5 -139.5q-62 -60 -146 -95t-178 -35q-91 0 -171.5 35t-140.5 97q-59 61 -94 143.5t-35 177.5q0 89 35 170t96 141q61 62 144 98t179 36zM580 70q-52 0 -87.5 26t-56.5 68
q-21 43 -30 96.5t-9 110.5q0 48 7.5 100.5t28.5 97.5q21 44 56 73.5t91 29.5q55 0 90.5 -27.5t54.5 -70.5q21 -43 28.5 -96.5t9.5 -106.5q0 -48 -7 -101t-27 -97q-20 -45 -56 -74t-93 -29zM483 371q0 -42 4 -84.5t15 -75.5q10 -34 29 -54t49 -20t48.5 19.5t29.5 53.5t15 76
t4 85q0 41 -4 83t-15 77q-11 33 -29.5 53.5t-48.5 20.5t-49 -20.5t-30 -53.5q-11 -34 -14.5 -76t-3.5 -84zM269 566l-98 -62v83l115 71h68v-592h-85v500zM463 748q-83 0 -153.5 -31t-124.5 -84q-52 -53 -81.5 -124t-29.5 -151q0 -83 29.5 -154.5t80.5 -123.5
q52 -52 120.5 -82t147.5 -30q82 0 153.5 29.5t124.5 81.5q54 52 84.5 121.5t30.5 149.5q0 82 -31 155.5t-83 127.5l-3 3q-53 51 -121.5 81.5t-143.5 30.5z" />
    <glyph glyph-name="uni246A" unicode="&#x246a;" horiz-adv-x="940" 
d="M464 807q89 0 170.5 -36.5t142.5 -98.5t97 -145.5t36 -177.5q0 -90 -36.5 -170.5t-98.5 -139.5q-62 -60 -146 -95t-178 -35q-91 0 -171.5 35t-140.5 97q-59 61 -94 143.5t-35 177.5q0 89 35 170t96 141q61 62 144 98t179 36zM309 566l-98 -62v83l115 71h68v-592h-85v500z
M559 566l-98 -62v83l115 71h68v-592h-85v500zM463 748q-83 0 -153.5 -31t-124.5 -84q-52 -53 -81.5 -124t-29.5 -151q0 -83 29.5 -154.5t80.5 -123.5q52 -52 120.5 -82t147.5 -30q82 0 153.5 29.5t124.5 81.5q54 52 84.5 121.5t30.5 149.5q0 82 -31 155.5t-83 127.5l-3 3
q-53 51 -121.5 81.5t-143.5 30.5z" />
    <glyph glyph-name="uni246B" unicode="&#x246b;" horiz-adv-x="940" 
d="M464 807q89 0 170.5 -36.5t142.5 -98.5t97 -145.5t36 -177.5q0 -90 -36.5 -170.5t-98.5 -139.5q-62 -60 -146 -95t-178 -35q-91 0 -171.5 35t-140.5 97q-59 61 -94 143.5t-35 177.5q0 89 35 170t96 141q61 62 144 98t179 36zM269 566l-98 -62v83l115 71h68v-592h-85v500z
M412 139q10 8 18.5 15.5t20.5 18.5q18 17 45 46t56 63q29 35 55 72.5t42 73.5q6 15 9.5 38t3.5 40q0 11 -4.5 26.5t-14.5 29.5t-26 23.5t-39 9.5q-42 0 -63.5 -26.5t-19.5 -66.5h-87q0 24 7 50.5t27 50.5q19 25 52 42t84 17q32 0 62.5 -11.5t54.5 -33.5q23 -20 37.5 -50
t14.5 -67q0 -18 -3.5 -45.5t-10.5 -46.5q-15 -38 -41.5 -77t-57.5 -75q-31 -35 -59.5 -63.5l-49.5 -49.5h234v-33q34 38 60 102.5t26 137.5q0 82 -31 155.5t-83 127.5l-3 3q-53 51 -121.5 81.5t-143.5 30.5q-83 0 -153.5 -31t-124.5 -84q-52 -53 -81.5 -124t-29.5 -151
q0 -83 29.5 -154.5t80.5 -123.5q52 -52 120.5 -82t147.5 -30q81 0 152.5 29.5t116.5 72.5h-309v69z" />
    <glyph glyph-name="uni246C" unicode="&#x246c;" horiz-adv-x="940" 
d="M464 807q89 0 170.5 -36.5t142.5 -98.5t97 -145.5t36 -177.5q0 -90 -36.5 -170.5t-98.5 -139.5q-62 -60 -146 -95t-178 -35q-91 0 -171.5 35t-140.5 97q-59 61 -94 143.5t-35 177.5q0 89 35 170t96 141q61 62 144 98t179 36zM269 566l-98 -62v83l115 71h68v-592h-85v500z
M679 377q2 -1 16.5 -10t29.5 -27q14 -18 24 -43.5t10 -62.5q0 -71 -47.5 -122.5t-135.5 -51.5t-131.5 40t-50.5 98h93q1 -26 20 -48.5t66 -22.5q48 0 72.5 30.5t24.5 79.5q0 32 -11.5 52.5t-28.5 31.5q-18 11 -40 16t-49 5v68q38 0 62 4.5t33 15.5q14 17 20.5 32.5t7.5 41.5
q0 41 -24.5 66t-60.5 25q-43 0 -64.5 -19.5t-25.5 -49.5h-84q0 24 10 47t30 42q22 20 54 33.5t77 13.5q32 0 63 -11t55 -30q25 -21 40 -50.5t15 -66.5q0 -29 -9.5 -52t-22.5 -40q-13 -16 -24 -24.5t-14 -10.5zM463 748q-83 0 -153.5 -31t-124.5 -84q-52 -53 -81.5 -124
t-29.5 -151q0 -83 29.5 -154.5t80.5 -123.5q52 -52 120.5 -82t147.5 -30q82 0 153.5 29.5t124.5 81.5q54 52 84.5 121.5t30.5 149.5q0 82 -31 155.5t-83 127.5l-3 3q-53 51 -121.5 81.5t-143.5 30.5z" />
    <glyph glyph-name="uni246D" unicode="&#x246d;" horiz-adv-x="940" 
d="M464 807q89 0 170.5 -36.5t142.5 -98.5t97 -145.5t36 -177.5q0 -90 -36.5 -170.5t-98.5 -139.5q-62 -60 -146 -95t-178 -35q-91 0 -171.5 35t-140.5 97q-59 61 -94 143.5t-35 177.5q0 89 35 170t96 141q61 62 144 98t179 36zM269 566l-98 -62v83l115 71h68v-592h-85v500z
M606 225h-228v62l228 375h82v-363h91v-74h-91v-155h-82v155zM606 532l-137 -233h137v233zM463 748q-83 0 -153.5 -31t-124.5 -84q-52 -53 -81.5 -124t-29.5 -151q0 -83 29.5 -154.5t80.5 -123.5q52 -52 120.5 -82t147.5 -30q82 0 153.5 29.5t124.5 81.5q54 52 84.5 121.5
t30.5 149.5q0 82 -31 155.5t-83 127.5l-3 3q-53 51 -121.5 81.5t-143.5 30.5z" />
    <glyph glyph-name="uni246E" unicode="&#x246e;" horiz-adv-x="940" 
d="M464 807q89 0 170.5 -36.5t142.5 -98.5t97 -145.5t36 -177.5q0 -90 -36.5 -170.5t-98.5 -139.5q-62 -60 -146 -95t-178 -35q-91 0 -171.5 35t-140.5 97q-59 61 -94 143.5t-35 177.5q0 89 35 170t96 141q61 62 144 98t179 36zM269 566l-98 -62v83l115 71h68v-592h-85v500z
M479 415q0 -1 23.5 7t55.5 8q81 0 130 -52t49 -132q0 -37 -14 -71t-39 -58q-25 -26 -60.5 -41t-77.5 -15q-46 0 -79.5 12.5t-54.5 32.5q-21 19 -30.5 42t-9.5 50h96q0 -25 16 -48t61 -23t74 32.5t32 88.5q0 53 -28.5 83t-68.5 33q-28 1 -46.5 -10t-34.5 -32h-78l14 331h294
v-76h-215zM463 748q-83 0 -153.5 -31t-124.5 -84q-52 -53 -81.5 -124t-29.5 -151q0 -83 29.5 -154.5t80.5 -123.5q52 -52 120.5 -82t147.5 -30q82 0 153.5 29.5t124.5 81.5q54 52 84.5 121.5t30.5 149.5q0 82 -31 155.5t-83 127.5l-3 3q-53 51 -121.5 81.5t-143.5 30.5z" />
    <glyph glyph-name="uni246F" unicode="&#x246f;" horiz-adv-x="940" 
d="M274 549l-98 -60v73l112 66h64v-547h-78v468zM464 807q89 0 170.5 -36.5t142.5 -98.5t97 -145.5t36 -177.5q0 -90 -36.5 -170.5t-98.5 -139.5q-62 -60 -146 -95t-178 -35q-91 0 -171.5 35t-140.5 97q-59 61 -94 143.5t-35 177.5q0 89 35 170t96 141q61 62 144 98t179 36z
M463 748q-83 0 -153.5 -31t-124.5 -84q-52 -53 -81.5 -124t-29.5 -151q0 -83 29.5 -154.5t80.5 -123.5q52 -52 120.5 -82t147.5 -30q82 0 153.5 29.5t124.5 81.5q54 52 84.5 121.5t30.5 149.5q0 82 -31 155.5t-83 127.5l-3 3q-53 51 -121.5 81.5t-143.5 30.5zM474 252
q7 -47 29 -79t64 -32q34 0 57.5 29t23.5 81q0 45 -22 74t-61 29q-36 0 -78 -35v68q12 11 37 20.5t56 9.5q36 0 63.5 -14t45.5 -38q19 -22 29 -52t10 -62t-10.5 -62t-29.5 -54q-20 -25 -50 -40t-71 -16q-42 0 -72.5 14t-51.5 38q-20 25 -32.5 57t-16.5 67q-3 24 -4.5 50.5
t-1.5 50.5q0 46 7 93.5t28 88.5q19 39 54.5 65t91.5 26q39 0 67 -12.5t46 -29.5q18 -19 26.5 -39.5t8.5 -43.5h-84q0 23 -15.5 43.5t-52.5 20.5q-24 0 -42 -14.5t-30 -38.5q-12 -25 -18.5 -58t-6.5 -68v-26q1 -69 6 -111z" />
    <glyph glyph-name="uni2470" unicode="&#x2470;" horiz-adv-x="940" 
d="M274 539l-98 -59v72l112 66h64v-547h-78v468zM635 551h-224v66h313v-58l-210 -481h-82zM464 807q89 0 170.5 -36.5t142.5 -98.5t97 -145.5t36 -177.5q0 -90 -36.5 -170.5t-98.5 -139.5q-62 -60 -146 -95t-178 -35q-91 0 -171.5 35t-140.5 97q-59 61 -94 143.5t-35 177.5
q0 89 35 170t96 141q61 62 144 98t179 36zM463 748q-83 0 -153.5 -31t-124.5 -84q-52 -53 -81.5 -124t-29.5 -151q0 -83 29.5 -154.5t80.5 -123.5q52 -52 120.5 -82t147.5 -30q82 0 153.5 29.5t124.5 81.5q54 52 84.5 121.5t30.5 149.5q0 82 -31 155.5t-83 127.5l-3 3
q-53 51 -121.5 81.5t-143.5 30.5z" />
    <glyph glyph-name="uni2471" unicode="&#x2471;" horiz-adv-x="940" 
d="M274 558l-98 -59v72l112 66h64v-547h-78v468zM569 86q-76 0 -128.5 39t-53.5 119q0 31 9.5 53.5t24.5 39.5q15 16 32.5 26t16.5 9q6 -2 -9 5.5t-29 23.5q-14 15 -23.5 39.5t-9.5 61.5q0 26 11.5 51t34.5 44q21 20 53 32t71 12q32 0 63 -11t54 -29q24 -19 38.5 -44.5
t14.5 -54.5q0 -56 -28.5 -90.5t-46.5 -39.5q-6 2 12 -6t34 -25q16 -15 28.5 -40t12.5 -60q0 -72 -52 -113.5t-130 -41.5zM477 497q0 -33 12 -54.5t42 -36.5q6 -2 17 -3t22 -1q43 0 66 26.5t25 66.5q0 43 -25.5 67.5t-66.5 24.5q-39 0 -65.5 -24.5t-26.5 -65.5zM466 247
q0 -18 4.5 -36.5t15.5 -33.5t31 -24.5t52 -9.5q46 0 72.5 26t28.5 78q0 40 -27 70.5t-75 31.5q-42 0 -72 -28t-30 -74zM464 807q89 0 170.5 -36.5t142.5 -98.5t97 -145.5t36 -177.5q0 -90 -36.5 -170.5t-98.5 -139.5q-62 -60 -146 -95t-178 -35q-91 0 -171.5 35t-140.5 97
q-59 61 -94 143.5t-35 177.5q0 89 35 170t96 141q61 62 144 98t179 36zM463 748q-83 0 -153.5 -31t-124.5 -84q-52 -53 -81.5 -124t-29.5 -151q0 -83 29.5 -154.5t80.5 -123.5q52 -52 120.5 -82t147.5 -30q82 0 153.5 29.5t124.5 81.5q54 52 84.5 121.5t30.5 149.5
q0 82 -31 155.5t-83 127.5l-3 3q-53 51 -121.5 81.5t-143.5 30.5z" />
    <glyph glyph-name="uni2472" unicode="&#x2472;" horiz-adv-x="940" 
d="M274 558l-98 -59v72l112 66h64v-547h-78v468zM464 807q89 0 170.5 -36.5t142.5 -98.5t97 -145.5t36 -177.5q0 -90 -36.5 -170.5t-98.5 -139.5q-62 -60 -146 -95t-178 -35q-91 0 -171.5 35t-140.5 97q-59 61 -94 143.5t-35 177.5q0 89 35 170t96 141q61 62 144 98t179 36z
M463 748q-83 0 -153.5 -31t-124.5 -84q-52 -53 -81.5 -124t-29.5 -151q0 -83 29.5 -154.5t80.5 -123.5q52 -52 120.5 -82t147.5 -30q82 0 153.5 29.5t124.5 81.5q54 52 84.5 121.5t30.5 149.5q0 82 -31 155.5t-83 127.5l-3 3q-53 51 -121.5 81.5t-143.5 30.5zM638 314
q-12 -10 -35.5 -16.5t-54.5 -6.5q-34 0 -62 13.5t-49 37.5q-19 24 -29.5 55t-10.5 67q0 35 11.5 66.5t34.5 56.5q21 24 51.5 38.5t68.5 14.5q41 0 70.5 -15.5t49.5 -40.5q19 -25 31 -57t17 -67q2 -23 3 -54t1 -56q0 -46 -6.5 -93.5t-25.5 -85.5q-18 -40 -52.5 -64.5
t-88.5 -24.5q-37 0 -66.5 11.5t-47.5 28.5q-21 18 -31 39.5t-10 48.5h89q0 -24 13.5 -44.5t53.5 -20.5q26 0 44.5 16t27.5 42q12 26 16.5 57.5t4.5 59.5q0 102 -3 137q-2 18 -8.5 42t-15.5 41q-10 15 -26.5 25t-39.5 12q-39 0 -62 -29.5t-25 -80.5q0 -49 22 -81t66 -33
q36 0 74 29v-68z" />
    <glyph glyph-name="uni2473" unicode="&#x2473;" horiz-adv-x="940" 
d="M176 150l32 31q15 17 38.5 45t48.5 61q24 32 46 67.5t36 69.5q6 14 9.5 37t3.5 38q0 11 -4.5 26.5t-12.5 30.5q-9 13 -22 22t-32 9q-36 0 -56.5 -25.5t-17.5 -62.5h-74q0 22 6 46t24 47q16 22 45 39t73 17q25 0 50.5 -11t45.5 -31q19 -21 31.5 -49t12.5 -64
q0 -18 -3.5 -43t-9.5 -42q-12 -37 -35 -73.5t-50 -70.5q-26 -34 -54 -64.5t-43 -46.5h205v-65h-293v62zM637 74q-45 0 -74.5 24.5t-47.5 64.5t-25 91t-7 105q0 45 6.5 94.5t23.5 91.5q18 41 47.5 69t77.5 28q46 0 75.5 -25.5t46.5 -66.5q16 -40 22.5 -90.5t8.5 -100.5
q0 -46 -6 -96t-23 -92q-16 -42 -46 -69.5t-79 -27.5zM555 359q0 -40 3 -79.5t13 -72.5q8 -31 24.5 -50t41.5 -19t40.5 18.5t25.5 50.5q9 32 12.5 72t3.5 80q0 37 -3.5 76.5t-12.5 72.5q-10 31 -25.5 51t-40.5 20q-26 0 -42 -19.5t-25 -51.5t-12 -71.5t-3 -77.5zM464 807
q89 0 170.5 -36.5t142.5 -98.5t97 -145.5t36 -177.5q0 -90 -36.5 -170.5t-98.5 -139.5q-62 -60 -146 -95t-178 -35q-91 0 -171.5 35t-140.5 97q-59 61 -94 143.5t-35 177.5q0 89 35 170t96 141q61 62 144 98t179 36zM463 748q-83 0 -153.5 -31t-124.5 -84
q-52 -53 -81.5 -124t-29.5 -151q0 -83 30 -154q27 -66 72 -116l8 -8q52 -52 120.5 -82t147.5 -30q82 0 153.5 29.5t124.5 81.5q54 52 84.5 121.5t30.5 149.5q0 82 -31 155.5t-83 127.5l-3 3q-53 51 -121.5 81.5t-143.5 30.5z" />
    <glyph glyph-name="uni2474" unicode="&#x2474;" horiz-adv-x="940" 
d="M435 579l-97 -63v75l112 73h63v-589h-78v504zM203 -6v-50q-66 18 -100 54.5t-50 83.5q-17 45 -21.5 95.5t-4.5 93.5v211q1 46 10 90.5t29 79.5q20 36 51.5 62t85.5 40v-50q-50 -27 -73.5 -94t-23.5 -146v-222q0 -92 24 -158.5t73 -89.5zM729 -56v50q47 23 70.5 89.5
t26.5 158.5v222q-1 79 -25 146t-72 94v50q52 -14 83 -40t51 -62q20 -35 29.5 -79t12.5 -91v-213q0 -42 -5 -92t-22 -95q-18 -47 -51 -83.5t-98 -54.5z" />
    <glyph glyph-name="uni2475" unicode="&#x2475;" horiz-adv-x="940" 
d="M294 143l38 33q18 18 45.5 47t56.5 64q28 35 54 72.5t42 73.5q6 15 10.5 39t4.5 39q0 12 -5 28.5t-15 31.5q-11 15 -27 24.5t-39 9.5q-43 0 -66 -27t-21 -66h-83q0 22 7 47.5t27 49.5q19 24 52 41t84 17q30 0 59 -11.5t53 -32.5q23 -20 37.5 -50t14.5 -68q0 -18 -4 -45
t-11 -46q-15 -38 -41.5 -76t-57.5 -74t-63.5 -68.5l-49.5 -49.5h239v-68h-341v65zM203 -6v-50q-66 18 -100 54.5t-50 83.5q-17 45 -21.5 95.5t-4.5 93.5v211q1 46 10 90.5t29 79.5q20 36 51.5 62t85.5 40v-50q-50 -27 -73.5 -94t-23.5 -146v-222q0 -92 24 -158.5t73 -89.5z
M729 -56v50q47 23 70.5 89.5t26.5 158.5v222q-1 79 -25 146t-72 94v50q52 -14 83 -40t51 -62q20 -35 29.5 -79t12.5 -91v-213q0 -42 -5 -92t-22 -95q-18 -47 -51 -83.5t-98 -54.5z" />
    <glyph glyph-name="uni2476" unicode="&#x2476;" horiz-adv-x="940" 
d="M293 538q0 22 9.5 44t29.5 40q20 19 52 32t76 13q31 0 61.5 -10.5t54.5 -30.5t39 -49t15 -66q0 -28 -9.5 -51t-22.5 -41q-11 -14 -27 -25t-21 -13q7 -2 22.5 -10t29.5 -22q16 -18 27 -44t11 -64q0 -71 -46.5 -121.5t-133.5 -50.5t-129.5 39t-49.5 94h87q1 -24 21 -47.5
t67 -23.5q49 0 75 31t26 82q0 33 -11.5 54.5t-29.5 32.5q-18 12 -39 17t-47 5v60q33 0 57 5t35 18q15 16 21.5 32t6.5 43q0 43 -25.5 69t-62.5 26q-43 0 -65.5 -20t-26.5 -48h-77zM203 -6v-50q-66 18 -100 54.5t-50 83.5q-17 45 -21.5 95.5t-4.5 93.5v211q1 46 10 90.5
t29 79.5q20 36 51.5 62t85.5 40v-50q-50 -27 -73.5 -94t-23.5 -146v-222q0 -92 24 -158.5t73 -89.5zM729 -56v50q47 23 70.5 89.5t26.5 158.5v222q-1 79 -25 146t-72 94v50q52 -14 83 -40t51 -62q20 -35 29.5 -79t12.5 -91v-213q0 -42 -5 -92t-22 -95q-18 -47 -51 -83.5
t-98 -54.5z" />
    <glyph glyph-name="uni2477" unicode="&#x2477;" horiz-adv-x="940" 
d="M484 236h-227v58l225 373h79v-362h91v-69h-91v-157h-77v157zM338 305h146v245zM203 -6v-50q-66 18 -100 54.5t-50 83.5q-17 45 -21.5 95.5t-4.5 93.5v211q1 46 10 90.5t29 79.5q20 36 51.5 62t85.5 40v-50q-50 -27 -73.5 -94t-23.5 -146v-222q0 -92 24 -158.5t73 -89.5z
M729 -56v50q47 23 70.5 89.5t26.5 158.5v222q-1 79 -25 146t-72 94v50q52 -14 83 -40t51 -62q20 -35 29.5 -79t12.5 -91v-213q0 -42 -5 -92t-22 -95q-18 -47 -51 -83.5t-98 -54.5z" />
    <glyph glyph-name="uni2478" unicode="&#x2478;" horiz-adv-x="940" 
d="M382 411q5 4 27.5 13t53.5 9q80 0 128.5 -51t48.5 -132q0 -37 -14 -70t-38 -57q-25 -26 -60.5 -40.5t-76.5 -14.5q-46 0 -78.5 12.5t-52.5 31.5q-20 18 -29 40.5t-9 47.5h89q0 -15 3.5 -26.5t14.5 -21.5q9 -10 24 -16.5t38 -6.5q46 0 76 33.5t32 91.5q0 55 -29.5 85
t-69.5 33q-28 0 -47.5 -11t-35.5 -28h-75l17 324h286v-71h-215zM203 -6v-50q-66 18 -100 54.5t-50 83.5q-17 45 -21.5 95.5t-4.5 93.5v211q1 46 10 90.5t29 79.5q20 36 51.5 62t85.5 40v-50q-50 -27 -73.5 -94t-23.5 -146v-222q0 -92 24 -158.5t73 -89.5zM729 -56v50
q47 23 70.5 89.5t26.5 158.5v222q-1 79 -25 146t-72 94v50q52 -14 83 -40t51 -62q20 -35 29.5 -79t12.5 -91v-213q0 -42 -5 -92t-22 -95q-18 -47 -51 -83.5t-98 -54.5z" />
    <glyph glyph-name="uni2479" unicode="&#x2479;" horiz-adv-x="940" 
d="M203 -6v-50q-66 18 -100 54.5t-50 83.5q-17 45 -21.5 95.5t-4.5 93.5v211q1 46 10 90.5t29 79.5q20 36 51.5 62t85.5 40v-50q-50 -27 -73.5 -94t-23.5 -146v-222q0 -92 24 -158.5t73 -89.5zM729 -56v50q47 23 70.5 89.5t26.5 158.5v222q-1 79 -25 146t-72 94v50
q52 -14 83 -40t51 -62q20 -35 29.5 -79t12.5 -91v-213q0 -42 -5 -92t-22 -95q-18 -47 -51 -83.5t-98 -54.5zM373 256q7 -52 31.5 -87t70.5 -35q37 0 63 32t26 89q0 50 -24.5 82t-66.5 32q-44 0 -80 -30v70q45 27 96 27q39 0 69 -15t51 -41q20 -25 31 -57.5t11 -67.5
t-11.5 -68t-32.5 -59q-22 -27 -55 -43.5t-77 -17.5q-46 0 -79 15.5t-56 41.5q-23 27 -36 62t-18 74q-3 25 -4.5 54.5t-1.5 56.5q0 49 7.5 101.5t29.5 96.5q22 43 60.5 71.5t99.5 28.5q42 0 73 -13.5t50 -33.5q20 -20 29.5 -42.5t9.5 -46.5h-91q0 24 -17.5 47t-57.5 23
q-27 0 -46.5 -16t-33.5 -43q-13 -27 -20 -63t-7 -75v-28q1 -75 7 -122z" />
    <glyph glyph-name="uni247A" unicode="&#x247a;" horiz-adv-x="940" 
d="M560 572h-263v71h351v-62l-209 -519h-82zM203 -6v-50q-66 18 -100 54.5t-50 83.5q-17 45 -21.5 95.5t-4.5 93.5v211q1 46 10 90.5t29 79.5q20 36 51.5 62t85.5 40v-50q-50 -27 -73.5 -94t-23.5 -146v-222q0 -92 24 -158.5t73 -89.5zM729 -56v50q47 23 70.5 89.5
t26.5 158.5v222q-1 79 -25 146t-72 94v50q52 -14 83 -40t51 -62q20 -35 29.5 -79t12.5 -91v-213q0 -42 -5 -92t-22 -95q-18 -47 -51 -83.5t-98 -54.5z" />
    <glyph glyph-name="uni247B" unicode="&#x247b;" horiz-adv-x="940" 
d="M456 68q-77 0 -129.5 42.5t-53.5 127.5q0 33 9 58t25 43q15 18 30.5 27t21.5 11q-8 4 -18 10.5t-23 21.5q-14 17 -23.5 42.5t-9.5 65.5q0 28 12 55t33 47q23 22 55 35t71 13q32 0 62.5 -11.5t54.5 -32.5q23 -19 37.5 -46.5t14.5 -59.5q0 -57 -26.5 -91.5t-51.5 -47.5
q9 -3 21.5 -10.5t28.5 -23.5q15 -18 27.5 -44.5t12.5 -64.5q0 -77 -52 -121.5t-129 -45.5zM364 512q0 -35 12 -58.5t42 -38.5q7 -3 17 -4t22 -1q42 0 65 28.5t25 71.5q0 46 -25.5 72.5t-65.5 26.5q-39 0 -65.5 -26.5t-26.5 -70.5zM352 242q0 -20 4.5 -40t16.5 -36
q11 -16 31.5 -26.5t51.5 -10.5q45 0 71.5 28.5t28.5 84.5q0 42 -26.5 75t-74.5 34q-42 0 -72 -30t-31 -79zM203 -6v-50q-66 18 -100 54.5t-50 83.5q-17 45 -21.5 95.5t-4.5 93.5v211q1 46 10 90.5t29 79.5q20 36 51.5 62t85.5 40v-50q-50 -27 -73.5 -94t-23.5 -146v-222
q0 -92 24 -158.5t73 -89.5zM729 -56v50q47 23 70.5 89.5t26.5 158.5v222q-1 79 -25 146t-72 94v50q52 -14 83 -40t51 -62q20 -35 29.5 -79t12.5 -91v-213q0 -42 -5 -92t-22 -95q-18 -47 -51 -83.5t-98 -54.5z" />
    <glyph glyph-name="uni247C" unicode="&#x247c;" horiz-adv-x="940" 
d="M203 -6v-50q-66 18 -100 54.5t-50 83.5q-17 45 -21.5 95.5t-4.5 93.5v211q1 46 10 90.5t29 79.5q20 36 51.5 62t85.5 40v-50q-50 -27 -73.5 -94t-23.5 -146v-222q0 -92 24 -158.5t73 -89.5zM729 -56v50q47 23 70.5 89.5t26.5 158.5v222q-1 79 -25 146t-72 94v50
q52 -14 83 -40t51 -62q20 -35 29.5 -79t12.5 -91v-213q0 -42 -5 -92t-22 -95q-18 -47 -51 -83.5t-98 -54.5zM539 311q-39 -19 -89 -19q-38 0 -68 14.5t-52 40.5t-33 59.5t-11 72.5q0 38 12.5 72t36.5 60t56.5 41.5t72.5 15.5q45 0 76.5 -16.5t53.5 -43.5q21 -27 33.5 -61.5
t18.5 -71.5q2 -25 3.5 -59t1.5 -60q0 -50 -7.5 -101t-27.5 -93t-57 -68.5t-96 -26.5q-39 0 -70.5 12t-52.5 31t-32 42.5t-11 51.5h95q0 -25 15 -48t57 -23q29 0 49 18t31 46q12 28 17 62t5 64q0 111 -4 148q-2 20 -8.5 46t-16.5 44q-12 17 -29.5 27.5t-43.5 12.5
q-41 0 -66 -32t-27 -87q0 -53 23.5 -88t70.5 -36q38 0 74 25v-72z" />
    <glyph glyph-name="uni247D" unicode="&#x247d;" horiz-adv-x="940" 
d="M587 79q-44 0 -74 23.5t-48 62.5t-25 89.5t-7 104.5q0 45 6.5 93.5t23.5 89.5q18 41 47.5 68t77.5 27q46 0 75.5 -25t46.5 -64q16 -40 22.5 -89.5t8.5 -99.5q0 -46 -6 -95t-22 -90q-17 -42 -47.5 -68.5t-78.5 -26.5zM505 359q0 -40 3 -79t13 -70q8 -31 24.5 -49t41.5 -18
t40.5 18t25.5 48q9 32 12.5 71t3.5 79q0 37 -3.5 75.5t-12.5 70.5q-10 31 -25.5 50t-40.5 19q-26 0 -42 -19t-25 -49q-9 -32 -12 -70.5t-3 -76.5zM292 558l-98 -61v74l112 68h64v-549h-78v468zM203 -6v-50q-66 18 -100 54.5t-50 83.5q-17 45 -21.5 95.5t-4.5 93.5v211
q1 46 10 90.5t29 79.5q20 36 51.5 62t85.5 40v-50q-50 -27 -73.5 -94t-23.5 -146v-222q0 -92 24 -158.5t73 -89.5zM729 -56v50q47 23 70.5 89.5t26.5 158.5v222q-1 79 -25 146t-72 94v50q52 -14 83 -40t51 -62q20 -35 29.5 -79t12.5 -91v-213q0 -42 -5 -92t-22 -95
q-18 -47 -51 -83.5t-98 -54.5z" />
    <glyph glyph-name="uni247E" unicode="&#x247e;" horiz-adv-x="940" 
d="M312 558l-98 -61v74l112 68h64v-549h-78v468zM558 558l-98 -61v74l112 68h65v-549h-79v468zM203 -6v-50q-66 18 -100 54.5t-50 83.5q-17 45 -21.5 95.5t-4.5 93.5v211q1 46 10 90.5t29 79.5q20 36 51.5 62t85.5 40v-50q-50 -27 -73.5 -94t-23.5 -146v-222
q0 -92 24 -158.5t73 -89.5zM729 -56v50q47 23 70.5 89.5t26.5 158.5v222q-1 79 -25 146t-72 94v50q52 -14 83 -40t51 -62q20 -35 29.5 -79t12.5 -91v-213q0 -42 -5 -92t-22 -95q-18 -47 -51 -83.5t-98 -54.5z" />
    <glyph glyph-name="uni247F" unicode="&#x247f;" horiz-adv-x="940" 
d="M274 558l-98 -61v74l112 68h64v-549h-78v468zM408 167l39 32q17 17 44.5 43t56.5 57q28 32 54.5 65.5t41.5 67.5q7 14 11 37t4 38q0 11 -5 26.5t-15 28.5q-11 14 -27.5 23.5t-39.5 9.5q-43 0 -66 -25.5t-20 -62.5h-82q0 21 7 45t27 47q19 23 51.5 39.5t82.5 16.5
q31 0 60.5 -11t53.5 -31q23 -20 37.5 -48.5t14.5 -64.5q0 -18 -4 -43t-11 -42q-16 -36 -42.5 -71t-57.5 -67q-32 -32 -64.5 -61.5t-49.5 -45.5h240v-65h-341v62zM203 -6v-50q-66 18 -100 54.5t-50 83.5q-17 45 -21.5 95.5t-4.5 93.5v211q1 46 10 90.5t29 79.5q20 36 51.5 62
t85.5 40v-50q-50 -27 -73.5 -94t-23.5 -146v-222q0 -92 24 -158.5t73 -89.5zM729 -56v50q47 23 70.5 89.5t26.5 158.5v222q-1 79 -25 146t-72 94v50q52 -14 83 -40t51 -62q20 -35 29.5 -79t12.5 -91v-213q0 -42 -5 -92t-22 -95q-18 -47 -51 -83.5t-98 -54.5z" />
    <glyph glyph-name="uni2480" unicode="&#x2480;" horiz-adv-x="940" 
d="M274 555l-98 -63v76l112 69h64v-546h-78v464zM411 523q0 22 9.5 43.5t29.5 39.5t52 31t76 13q31 0 61.5 -9.5t54.5 -26.5q24 -19 39 -46.5t15 -63.5q0 -28 -9.5 -49t-22.5 -37q-15 -16 -31 -25q-12 -7 -14 -9l15 -5q18 -8 33 -23q17 -14 28 -39t11 -63q0 -69 -47 -114.5
t-134 -45.5t-129.5 38t-49.5 93h87q0 -24 20.5 -47.5t67.5 -23.5q50 0 76 27t26 76q0 33 -11.5 52.5t-29.5 29.5q-17 10 -39 13.5t-48 3.5v59q34 0 58 4.5t35 17.5q15 17 21.5 29t6.5 38q0 42 -25.5 63.5t-61.5 21.5q-46 0 -68 -19.5t-26 -46.5h-76zM203 -6v-50
q-66 18 -100 54.5t-50 83.5q-17 45 -21.5 95.5t-4.5 93.5v211q1 46 10 90.5t29 79.5q20 36 51.5 62t85.5 40v-50q-50 -27 -73.5 -94t-23.5 -146v-222q0 -92 24 -158.5t73 -89.5zM729 -56v50q47 23 70.5 89.5t26.5 158.5v222q-1 79 -25 146t-72 94v50q52 -14 83 -40t51 -62
q20 -35 29.5 -79t12.5 -91v-213q0 -42 -5 -92t-22 -95q-18 -47 -51 -83.5t-98 -54.5z" />
    <glyph glyph-name="uni2481" unicode="&#x2481;" horiz-adv-x="940" 
d="M274 555l-98 -63v76l112 69h64v-546h-78v464zM598 235h-227v57l225 350h79v-339h91v-68h-91v-139h-77v139zM452 303h146v225zM203 -6v-50q-66 18 -100 54.5t-50 83.5q-17 45 -21.5 95.5t-4.5 93.5v211q1 46 10 90.5t29 79.5q20 36 51.5 62t85.5 40v-50q-50 -27 -73.5 -94
t-23.5 -146v-222q0 -92 24 -158.5t73 -89.5zM729 -56v50q47 23 70.5 89.5t26.5 158.5v222q-1 79 -25 146t-72 94v50q52 -14 83 -40t51 -62q20 -35 29.5 -79t12.5 -91v-213q0 -42 -5 -92t-22 -95q-18 -47 -51 -83.5t-98 -54.5z" />
    <glyph glyph-name="uni2482" unicode="&#x2482;" horiz-adv-x="940" 
d="M274 558l-98 -59v72l112 66h64v-547h-78v468zM489 403q4 1 28 10t55 9q79 0 128 -46t49 -122q0 -34 -14 -65t-39 -54q-26 -23 -61 -37t-77 -14q-45 0 -77.5 11.5t-51.5 29.5q-21 17 -30 38t-9 45h89q0 -23 17 -44.5t62 -21.5q47 0 77 31t32 85q0 50 -29 77t-71 30
q-29 0 -48 -8.5t-35 -25.5h-73l16 300h286v-66h-215zM203 -6v-50q-66 18 -100 54.5t-50 83.5q-17 45 -21.5 95.5t-4.5 93.5v211q1 46 10 90.5t29 79.5q20 36 51.5 62t85.5 40v-50q-50 -27 -73.5 -94t-23.5 -146v-222q0 -92 24 -158.5t73 -89.5zM729 -56v50q47 23 70.5 89.5
t26.5 158.5v222q-1 79 -25 146t-72 94v50q52 -14 83 -40t51 -62q20 -35 29.5 -79t12.5 -91v-213q0 -42 -5 -92t-22 -95q-18 -47 -51 -83.5t-98 -54.5z" />
    <glyph glyph-name="uni2483" unicode="&#x2483;" horiz-adv-x="940" 
d="M274 549l-98 -60v73l112 66h64v-547h-78v468zM203 -6v-50q-66 18 -100 54.5t-50 83.5q-17 45 -21.5 95.5t-4.5 93.5v211q1 46 10 90.5t29 79.5q20 36 51.5 62t85.5 40v-50q-50 -27 -73.5 -94t-23.5 -146v-222q0 -92 24 -158.5t73 -89.5zM729 -56v50q47 23 70.5 89.5
t26.5 158.5v222q-1 79 -25 146t-72 94v50q52 -14 83 -40t51 -62q20 -35 29.5 -79t12.5 -91v-213q0 -42 -5 -92t-22 -95q-18 -47 -51 -83.5t-98 -54.5zM474 251q7 -47 29 -79t64 -32q34 0 57.5 29t23.5 81q0 45 -22 74t-61 29q-36 0 -78 -35v68q12 11 37 20.5t56 9.5
q36 0 63.5 -14t45.5 -38q19 -22 29 -52t10 -62t-10.5 -62t-29.5 -54q-20 -25 -50 -40t-71 -16q-42 0 -72.5 14t-51.5 38q-20 25 -32.5 57t-16.5 67q-3 24 -4.5 50.5t-1.5 50.5q0 46 7 93.5t28 88.5q19 39 54.5 65t91.5 26q39 0 67 -12.5t46 -29.5q18 -19 26.5 -39.5
t8.5 -43.5h-84q0 23 -15.5 43.5t-52.5 20.5q-24 0 -42 -14.5t-30 -38.5q-12 -25 -18.5 -58t-6.5 -68v-26q1 -69 6 -111z" />
    <glyph glyph-name="uni2484" unicode="&#x2484;" horiz-adv-x="940" 
d="M274 539l-98 -59v72l112 66h64v-547h-78v468zM635 551h-224v66h313v-58l-210 -481h-82zM203 -6v-50q-66 18 -100 54.5t-50 83.5q-17 45 -21.5 95.5t-4.5 93.5v211q1 46 10 90.5t29 79.5q20 36 51.5 62t85.5 40v-50q-50 -27 -73.5 -94t-23.5 -146v-222q0 -92 24 -158.5
t73 -89.5zM729 -56v50q47 23 70.5 89.5t26.5 158.5v222q-1 79 -25 146t-72 94v50q52 -14 83 -40t51 -62q20 -35 29.5 -79t12.5 -91v-213q0 -42 -5 -92t-22 -95q-18 -47 -51 -83.5t-98 -54.5z" />
    <glyph glyph-name="uni2485" unicode="&#x2485;" horiz-adv-x="940" 
d="M274 558l-98 -59v72l112 66h64v-547h-78v468zM569 86q-76 0 -128.5 39t-53.5 119q0 31 9.5 53.5t24.5 39.5q15 16 32.5 26t16.5 9q6 -2 -9 5.5t-29 23.5q-14 15 -23.5 39.5t-9.5 61.5q0 26 11.5 51t34.5 44q21 20 53 32t71 12q32 0 63 -11t54 -29q24 -19 38.5 -44.5
t14.5 -54.5q0 -56 -28.5 -90.5t-46.5 -39.5q-6 2 12 -6t34 -25q16 -15 28.5 -40t12.5 -60q0 -72 -52 -113.5t-130 -41.5zM477 497q0 -33 12 -54.5t42 -36.5q6 -2 17 -3t22 -1q43 0 66 26.5t25 66.5q0 43 -25.5 67.5t-66.5 24.5q-39 0 -65.5 -24.5t-26.5 -65.5zM466 247
q0 -18 4.5 -36.5t15.5 -33.5t31 -24.5t52 -9.5q46 0 72.5 26t28.5 78q0 40 -27 70.5t-75 31.5q-42 0 -72 -28t-30 -74zM203 -6v-50q-66 18 -100 54.5t-50 83.5q-17 45 -21.5 95.5t-4.5 93.5v211q1 46 10 90.5t29 79.5q20 36 51.5 62t85.5 40v-50q-50 -27 -73.5 -94
t-23.5 -146v-222q0 -92 24 -158.5t73 -89.5zM729 -56v50q47 23 70.5 89.5t26.5 158.5v222q-1 79 -25 146t-72 94v50q52 -14 83 -40t51 -62q20 -35 29.5 -79t12.5 -91v-213q0 -42 -5 -92t-22 -95q-18 -47 -51 -83.5t-98 -54.5z" />
    <glyph glyph-name="uni2486" unicode="&#x2486;" horiz-adv-x="940" 
d="M274 558l-98 -59v72l112 66h64v-547h-78v468zM203 -6v-50q-66 18 -100 54.5t-50 83.5q-17 45 -21.5 95.5t-4.5 93.5v211q1 46 10 90.5t29 79.5q20 36 51.5 62t85.5 40v-50q-50 -27 -73.5 -94t-23.5 -146v-222q0 -92 24 -158.5t73 -89.5zM729 -56v50q47 23 70.5 89.5
t26.5 158.5v222q-1 79 -25 146t-72 94v50q52 -14 83 -40t51 -62q20 -35 29.5 -79t12.5 -91v-213q0 -42 -5 -92t-22 -95q-18 -47 -51 -83.5t-98 -54.5zM638 314q-12 -10 -35.5 -16.5t-54.5 -6.5q-34 0 -62 13.5t-49 37.5q-19 24 -29.5 55t-10.5 67q0 35 11.5 66.5t34.5 56.5
q21 24 51.5 38.5t68.5 14.5q41 0 70.5 -15.5t49.5 -40.5q19 -25 31 -57t17 -67q2 -23 3 -54t1 -56q0 -46 -6.5 -93.5t-25.5 -85.5q-18 -40 -52.5 -64.5t-88.5 -24.5q-37 0 -66.5 11.5t-47.5 28.5q-21 18 -31 39.5t-10 48.5h89q0 -24 13.5 -44.5t53.5 -20.5q26 0 44.5 16
t27.5 42q12 26 16.5 57.5t4.5 59.5q0 102 -3 137q-2 18 -8.5 42t-15.5 41q-10 15 -26.5 25t-39.5 12q-39 0 -62 -29.5t-25 -80.5q0 -49 22 -81t66 -33q36 0 74 29v-68z" />
    <glyph glyph-name="uni2487" unicode="&#x2487;" horiz-adv-x="940" 
d="M176 150l32 31q15 17 38.5 45t48.5 61q24 32 46 67.5t36 69.5q6 14 9.5 37t3.5 38q0 11 -4.5 26.5t-12.5 30.5q-9 13 -22 22t-32 9q-36 0 -56.5 -25.5t-17.5 -62.5h-74q0 22 6 46t24 47q16 22 45 39t73 17q25 0 50.5 -11t45.5 -31q19 -21 31.5 -49t12.5 -64
q0 -18 -3.5 -43t-9.5 -42q-12 -37 -35 -73.5t-50 -70.5q-26 -34 -54 -64.5t-43 -46.5h205v-65h-293v62zM637 74q-45 0 -74.5 24.5t-47.5 64.5t-25 91t-7 105q0 45 6.5 94.5t23.5 91.5q18 41 47.5 69t77.5 28q46 0 75.5 -25.5t46.5 -66.5q16 -40 22.5 -90.5t8.5 -100.5
q0 -46 -6 -96t-23 -92q-16 -42 -46 -69.5t-79 -27.5zM555 359q0 -40 3 -79.5t13 -72.5q8 -31 24.5 -50t41.5 -19t40.5 18.5t25.5 50.5q9 32 12.5 72t3.5 80q0 37 -3.5 76.5t-12.5 72.5q-10 31 -25.5 51t-40.5 20q-26 0 -42 -19.5t-25 -51.5t-12 -71.5t-3 -77.5zM203 -6v-50
q-66 18 -100 54.5t-50 83.5q-17 45 -21.5 95.5t-4.5 93.5v211q1 46 10 90.5t29 79.5q20 36 51.5 62t85.5 40v-50q-50 -27 -73.5 -94t-23.5 -146v-222q0 -92 24 -158.5t73 -89.5zM729 -56v50q47 23 70.5 89.5t26.5 158.5v222q-1 79 -25 146t-72 94v50q52 -14 83 -40t51 -62
q20 -35 29.5 -79t12.5 -91v-213q0 -42 -5 -92t-22 -95q-18 -47 -51 -83.5t-98 -54.5z" />
    <glyph glyph-name="uni249C" unicode="&#x249c;" horiz-adv-x="940" 
d="M203 -6v-50q-66 18 -100 54.5t-50 83.5q-17 45 -21.5 95.5t-4.5 93.5v211q1 46 10 90.5t29 79.5q20 36 51.5 62t85.5 40v-50q-50 -27 -73.5 -94t-23.5 -146v-222q0 -92 24 -158.5t73 -89.5zM729 -56v50q47 23 70.5 89.5t26.5 158.5v222q-1 79 -25 146t-72 94v50
q52 -14 83 -40t51 -62q20 -35 29.5 -79t12.5 -91v-213q0 -42 -5 -92t-22 -95q-18 -47 -51 -83.5t-98 -54.5zM555 341q-12 1 -40 0.5t-57 -6.5q-26 -7 -51.5 -24.5t-25.5 -49.5q0 -36 19.5 -47.5t47.5 -11.5q23 0 54.5 18t43.5 47q4 8 6.5 18t2.5 21v35zM555 178
q-4 -4 -12.5 -9.5t-20.5 -11.5q-19 -10 -45 -17t-59 -7q-24 0 -47 8t-42 24q-18 15 -29.5 37.5t-11.5 50.5q0 49 31.5 86t74.5 51q26 7 52.5 10.5t49.5 4.5t39.5 0.5t19.5 -0.5v34q0 9 -3 22.5t-11 27.5q-9 12 -25 21t-44 9q-37 0 -56 -16t-19 -52h-97q0 30 11 54t33 42
q21 19 54 30.5t75 11.5q86 0 127 -43.5t41 -104.5v-299h-86v36z" />
    <glyph glyph-name="uni249D" unicode="&#x249d;" horiz-adv-x="940" 
d="M203 -6v-50q-66 18 -100 54.5t-50 83.5q-17 45 -21.5 95.5t-4.5 93.5v211q1 46 10 90.5t29 79.5q20 36 51.5 62t85.5 40v-50q-50 -27 -73.5 -94t-23.5 -146v-222q0 -92 24 -158.5t73 -89.5zM729 -56v50q47 23 70.5 89.5t26.5 158.5v222q-1 79 -25 146t-72 94v50
q52 -14 83 -40t51 -62q20 -35 29.5 -79t12.5 -91v-213q0 -42 -5 -92t-22 -95q-18 -47 -51 -83.5t-98 -54.5zM402 466q45 30 93 30q71 0 116.5 -36t64.5 -103q4 -21 7 -44t3 -48q0 -112 -58.5 -168.5t-147.5 -56.5q-60 0 -97.5 21t-58.5 53q-21 31 -28 68t-7 69v422h86v-422
q0 -27 5.5 -52t18.5 -46q13 -20 33.5 -32.5t48.5 -12.5q52 0 81.5 42t29.5 110q0 15 -1 29.5t-4 31.5q-6 41 -28.5 71.5t-69.5 30.5q-34 0 -87 -33v76z" />
    <glyph glyph-name="uni249E" unicode="&#x249e;" horiz-adv-x="940" 
d="M203 -6v-50q-66 18 -100 54.5t-50 83.5q-17 45 -21.5 95.5t-4.5 93.5v211q1 46 10 90.5t29 79.5q20 36 51.5 62t85.5 40v-50q-50 -27 -73.5 -94t-23.5 -146v-222q0 -92 24 -158.5t73 -89.5zM729 -56v50q47 23 70.5 89.5t26.5 158.5v222q-1 79 -25 146t-72 94v50
q52 -14 83 -40t51 -62q20 -35 29.5 -79t12.5 -91v-213q0 -42 -5 -92t-22 -95q-18 -47 -51 -83.5t-98 -54.5zM638 155q-42 -22 -86.5 -29t-87.5 -3t-80 19t-61 39q-29 31 -48.5 75.5t-19.5 102.5q0 95 57.5 156.5t159.5 61.5q42 0 79.5 -11t66.5 -38q15 -16 24 -42t9 -65h-92
q0 23 -3 37.5t-12 25.5t-30.5 17t-43.5 6q-54 0 -89 -35t-35 -101q0 -20 2.5 -42t12.5 -44q9 -22 25 -42t44 -36q9 -5 31 -9.5t49 -4.5t58 7t70 30v-75z" />
    <glyph glyph-name="uni249F" unicode="&#x249f;" horiz-adv-x="940" 
d="M203 -6v-50q-66 18 -100 54.5t-50 83.5q-17 45 -21.5 95.5t-4.5 93.5v211q1 46 10 90.5t29 79.5q20 36 51.5 62t85.5 40v-50q-50 -27 -73.5 -94t-23.5 -146v-222q0 -92 24 -158.5t73 -89.5zM729 -56v50q47 23 70.5 89.5t26.5 158.5v222q-1 79 -25 146t-72 94v50
q52 -14 83 -40t51 -62q20 -35 29.5 -79t12.5 -91v-213q0 -42 -5 -92t-22 -95q-18 -47 -51 -83.5t-98 -54.5zM512 472v-79q-37 34 -81 34q-31 0 -60 -25t-37 -79q-2 -15 -3.5 -32t-1.5 -34q0 -26 6 -52.5t18 -48.5q13 -21 32 -34t46 -13q37 0 64.5 29.5t36.5 75.5
q4 16 5.5 37.5t1.5 42.5v381h86v-624h-84v45q-7 -14 -21 -25q-17 -12 -42.5 -21t-63.5 -9q-40 0 -72.5 16.5t-56.5 45.5q-24 30 -36.5 69.5t-12.5 87.5q0 21 1.5 45t7.5 42q20 80 71 115t110 35q50 0 86 -25z" />
    <glyph glyph-name="uni24A0" unicode="&#x24a0;" horiz-adv-x="940" 
d="M650 403v-70h-302q3 -27 19.5 -63.5t62.5 -61.5q10 -5 31.5 -10t48.5 -5t58 7t70 30v-75q-42 -22 -86.5 -29t-87.5 -3t-80 19t-61 39q-29 31 -48.5 75.5t-19.5 102.5q0 95 57.5 156.5t160.5 61.5q45 0 83 -19.5t62 -54.5q16 -24 23 -53t8 -47h1zM347 403h212
q0 9 -2.5 28.5t-12.5 36.5q-16 19 -32.5 29t-42.5 10q-50 0 -83.5 -29t-38.5 -75zM203 -6v-50q-66 18 -100 54.5t-50 83.5q-17 45 -21.5 95.5t-4.5 93.5v211q1 46 10 90.5t29 79.5q20 36 51.5 62t85.5 40v-50q-50 -27 -73.5 -94t-23.5 -146v-222q0 -92 24 -158.5t73 -89.5z
M729 -56v50q47 23 70.5 89.5t26.5 158.5v222q-1 79 -25 146t-72 94v50q52 -14 83 -40t51 -62q20 -35 29.5 -79t12.5 -91v-213q0 -42 -5 -92t-22 -95q-18 -47 -51 -83.5t-98 -54.5z" />
    <glyph glyph-name="uni24A1" unicode="&#x24a1;" horiz-adv-x="940" 
d="M379 402h-76v70h76v23q0 25 4 55t22 56q17 24 47.5 39.5t84.5 17.5q24 0 46.5 -3.5t44.5 -7.5v-72q-25 4 -45.5 7.5t-41.5 4.5q-26 0 -39.5 -5.5t-23.5 -19.5q-6 -12 -9 -25.5t-2 -34.5v-35h129v-70h-129v-366h-88v366zM203 -6v-50q-66 18 -100 54.5t-50 83.5
q-17 45 -21.5 95.5t-4.5 93.5v211q1 46 10 90.5t29 79.5q20 36 51.5 62t85.5 40v-50q-50 -27 -73.5 -94t-23.5 -146v-222q0 -92 24 -158.5t73 -89.5zM729 -56v50q47 23 70.5 89.5t26.5 158.5v222q-1 79 -25 146t-72 94v50q52 -14 83 -40t51 -62q20 -35 29.5 -79t12.5 -91
v-213q0 -42 -5 -92t-22 -95q-18 -47 -51 -83.5t-98 -54.5z" />
    <glyph glyph-name="uni24A2" unicode="&#x24a2;" horiz-adv-x="940" 
d="M203 -6v-50q-66 18 -100 54.5t-50 83.5q-17 45 -21.5 95.5t-4.5 93.5v211q1 46 10 90.5t29 79.5q20 36 51.5 62t85.5 40v-50q-50 -27 -73.5 -94t-23.5 -146v-222q0 -92 24 -158.5t73 -89.5zM729 -56v50q47 23 70.5 89.5t26.5 158.5v222q-1 79 -25 146t-72 94v50
q52 -14 83 -40t51 -62q20 -35 29.5 -79t12.5 -91v-213q0 -42 -5 -92t-22 -95q-18 -47 -51 -83.5t-98 -54.5zM565 210l2 11v220q0 29 -8 56.5t-21 48.5q-14 21 -33.5 33.5t-43.5 12.5q-29 0 -57 -23.5t-37 -73.5q-2 -8 -2.5 -17.5t-1.5 -20.5v-37q0 -24 5 -47.5t16 -43.5
q12 -19 30.5 -30.5t46.5 -11.5q43 0 81 36v-79q-37 -26 -93 -26q-78 0 -129.5 53t-51.5 152q0 25 2 51t6 45q11 54 57.5 97.5t121.5 43.5q56 0 82.5 -23t31.5 -31v44h87v-407q0 -102 -57.5 -148t-158.5 -46q-33 0 -73 6t-69 19v87q38 -20 75.5 -28.5t73.5 -8.5q58 0 84 23
t34 63z" />
    <glyph glyph-name="uni24A3" unicode="&#x24a3;" horiz-adv-x="940" 
d="M203 -6v-50q-66 18 -100 54.5t-50 83.5q-17 45 -21.5 95.5t-4.5 93.5v211q1 46 10 90.5t29 79.5q20 36 51.5 62t85.5 40v-50q-50 -27 -73.5 -94t-23.5 -146v-222q0 -92 24 -158.5t73 -89.5zM729 -56v50q47 23 70.5 89.5t26.5 158.5v222q-1 79 -25 146t-72 94v50
q52 -14 83 -40t51 -62q20 -35 29.5 -79t12.5 -91v-213q0 -42 -5 -92t-22 -95q-18 -47 -51 -83.5t-98 -54.5zM384 418q12 19 16.5 24t16.5 17q17 16 41.5 27t58.5 11q25 0 50.5 -7.5t47.5 -21.5q21 -16 34.5 -41t13.5 -60v-317h-84v285q0 14 -3.5 29t-11.5 29q-9 12 -23 20.5
t-35 8.5q-36 0 -69 -34t-46 -85q-4 -16 -5.5 -30.5t-1.5 -31.5v-191h-83v624h83v-256z" />
    <glyph glyph-name="uni24A4" unicode="&#x24a4;" horiz-adv-x="940" 
d="M420 483h90v-437h-90v437zM412 670h104v-102h-104v102zM203 -6v-50q-66 18 -100 54.5t-50 83.5q-17 45 -21.5 95.5t-4.5 93.5v211q1 46 10 90.5t29 79.5q20 36 51.5 62t85.5 40v-50q-50 -27 -73.5 -94t-23.5 -146v-222q0 -92 24 -158.5t73 -89.5zM729 -56v50
q47 23 70.5 89.5t26.5 158.5v222q-1 79 -25 146t-72 94v50q52 -14 83 -40t51 -62q20 -35 29.5 -79t12.5 -91v-213q0 -42 -5 -92t-22 -95q-18 -47 -51 -83.5t-98 -54.5z" />
    <glyph glyph-name="uni24A5" unicode="&#x24a5;" horiz-adv-x="940" 
d="M337 85h37.5t38.5 7t28.5 23t11.5 51v340h88v-328q0 -54 -17 -87t-45 -52q-29 -19 -64.5 -24.5t-77.5 -5.5v76zM443 693h104v-102h-104v102zM203 -6v-50q-66 18 -100 54.5t-50 83.5q-17 45 -21.5 95.5t-4.5 93.5v211q1 46 10 90.5t29 79.5q20 36 51.5 62t85.5 40v-50
q-50 -27 -73.5 -94t-23.5 -146v-222q0 -92 24 -158.5t73 -89.5zM729 -56v50q47 23 70.5 89.5t26.5 158.5v222q-1 79 -25 146t-72 94v50q52 -14 83 -40t51 -62q20 -35 29.5 -79t12.5 -91v-213q0 -42 -5 -92t-22 -95q-18 -47 -51 -83.5t-98 -54.5z" />
    <glyph glyph-name="uni24A6" unicode="&#x24a6;" horiz-adv-x="940" 
d="M394 250v-199h-84v623h84v-346l168 159h116l-211 -194l225 -242h-112zM203 -6v-50q-66 18 -100 54.5t-50 83.5q-17 45 -21.5 95.5t-4.5 93.5v211q1 46 10 90.5t29 79.5q20 36 51.5 62t85.5 40v-50q-50 -27 -73.5 -94t-23.5 -146v-222q0 -92 24 -158.5t73 -89.5zM729 -56
v50q47 23 70.5 89.5t26.5 158.5v222q-1 79 -25 146t-72 94v50q52 -14 83 -40t51 -62q20 -35 29.5 -79t12.5 -91v-213q0 -42 -5 -92t-22 -95q-18 -47 -51 -83.5t-98 -54.5z" />
    <glyph glyph-name="uni24A7" unicode="&#x24a7;" horiz-adv-x="940" 
d="M421 673h86v-624h-86v624zM203 -6v-50q-66 18 -100 54.5t-50 83.5q-17 45 -21.5 95.5t-4.5 93.5v211q1 46 10 90.5t29 79.5q20 36 51.5 62t85.5 40v-50q-50 -27 -73.5 -94t-23.5 -146v-222q0 -92 24 -158.5t73 -89.5zM729 -56v50q47 23 70.5 89.5t26.5 158.5v222
q-1 79 -25 146t-72 94v50q52 -14 83 -40t51 -62q20 -35 29.5 -79t12.5 -91v-213q0 -42 -5 -92t-22 -95q-18 -47 -51 -83.5t-98 -54.5z" />
    <glyph glyph-name="uni24A8" unicode="&#x24a8;" horiz-adv-x="940" 
d="M203 -6v-50q-66 18 -100 54.5t-50 83.5q-17 45 -21.5 95.5t-4.5 93.5v211q1 46 10 90.5t29 79.5q20 36 51.5 62t85.5 40v-50q-50 -27 -73.5 -94t-23.5 -146v-222q0 -92 24 -158.5t73 -89.5zM729 -56v50q47 23 70.5 89.5t26.5 158.5v222q-1 79 -25 146t-72 94v50
q52 -14 83 -40t51 -62q20 -35 29.5 -79t12.5 -91v-213q0 -42 -5 -92t-22 -95q-18 -47 -51 -83.5t-98 -54.5zM500 505q7 14 13 24t18 22q16 15 39.5 25.5t55.5 10.5q59 0 98 -35.5t39 -102.5v-308h-82v239q0 23 -1.5 46t-8.5 41q-6 18 -20.5 29.5t-38.5 11.5q-31 0 -57 -36
t-38 -90q-3 -17 -4.5 -31t-1.5 -30v-180h-81v239q0 23 -2 46t-10 41q-6 18 -20 29.5t-36 11.5t-42.5 -17.5t-34.5 -47.5q-12 -28 -18.5 -57.5t-6.5 -66.5v-178h-82v436h82v-61q3 6 9 15t17 19q16 15 38 26t51 11q58 0 88 -30t37 -52z" />
    <glyph glyph-name="uni24A9" unicode="&#x24a9;" horiz-adv-x="940" 
d="M203 -6v-50q-66 18 -100 54.5t-50 83.5q-17 45 -21.5 95.5t-4.5 93.5v211q1 46 10 90.5t29 79.5q20 36 51.5 62t85.5 40v-50q-50 -27 -73.5 -94t-23.5 -146v-222q0 -92 24 -158.5t73 -89.5zM729 -56v50q47 23 70.5 89.5t26.5 158.5v222q-1 79 -25 146t-72 94v50
q52 -14 83 -40t51 -62q20 -35 29.5 -79t12.5 -91v-213q0 -42 -5 -92t-22 -95q-18 -47 -51 -83.5t-98 -54.5zM374 509q6 12 11.5 20t14.5 17q18 17 45 29t67 12q61 0 99.5 -35.5t41.5 -103.5v-307h-81v239q0 23 -1 45.5t-9 40.5q-6 17 -21 28.5t-43 13.5q-38 2 -70.5 -33.5
t-46.5 -92.5q-2 -9 -3.5 -16.5t-1.5 -14.5q-1 -8 -1.5 -15t-0.5 -14v-181h-82v436h82v-68z" />
    <glyph glyph-name="uni24AA" unicode="&#x24aa;" horiz-adv-x="940" 
d="M467 132q-94 0 -154 59t-60 166q0 45 12.5 86.5t39.5 73.5q26 32 66 51t94 19q99 0 157.5 -64t58.5 -165q0 -100 -57.5 -163t-156.5 -63zM344 357q0 -32 7 -60t22 -49q14 -21 38 -33.5t57 -12.5q31 0 53.5 12.5t37.5 33.5q14 21 21 49.5t7 60.5q0 31 -7 60t-21 51
q-15 22 -38 35t-57 13q-63 0 -91.5 -47t-28.5 -113zM203 -6v-50q-66 18 -100 54.5t-50 83.5q-17 45 -21.5 95.5t-4.5 93.5v211q1 46 10 90.5t29 79.5q20 36 51.5 62t85.5 40v-50q-50 -27 -73.5 -94t-23.5 -146v-222q0 -92 24 -158.5t73 -89.5zM729 -56v50q47 23 70.5 89.5
t26.5 158.5v222q-1 79 -25 146t-72 94v50q52 -14 83 -40t51 -62q20 -35 29.5 -79t12.5 -91v-213q0 -42 -5 -92t-22 -95q-18 -47 -51 -83.5t-98 -54.5z" />
    <glyph glyph-name="uni24AB" unicode="&#x24ab;" horiz-adv-x="940" 
d="M203 -6v-50q-66 18 -100 54.5t-50 83.5q-17 45 -21.5 95.5t-4.5 93.5v211q1 46 10 90.5t29 79.5q20 36 51.5 62t85.5 40v-50q-50 -27 -73.5 -94t-23.5 -146v-222q0 -92 24 -158.5t73 -89.5zM729 -56v50q47 23 70.5 89.5t26.5 158.5v222q-1 79 -25 146t-72 94v50
q52 -14 83 -40t51 -62q20 -35 29.5 -79t12.5 -91v-213q0 -42 -5 -92t-22 -95q-18 -47 -51 -83.5t-98 -54.5zM414 304q38 -31 81 -31q26 0 44.5 12t31.5 32q12 22 18.5 49.5t6.5 59.5q0 68 -26 115t-76 47q-43 0 -75 -41.5t-32 -114.5v-382h-85v599h83v-52q4 8 11 16t16 16
q15 12 37.5 20.5t51.5 8.5q77 0 131 -61t54 -171q0 -43 -12.5 -82.5t-35.5 -71.5q-24 -32 -59 -51t-81 -19q-45 0 -84 26v76z" />
    <glyph glyph-name="uni24AC" unicode="&#x24ac;" horiz-adv-x="940" 
d="M203 -6v-50q-66 18 -100 54.5t-50 83.5q-17 45 -21.5 95.5t-4.5 93.5v211q1 46 10 90.5t29 79.5q20 36 51.5 62t85.5 40v-50q-50 -27 -73.5 -94t-23.5 -146v-222q0 -92 24 -158.5t73 -89.5zM729 -56v50q47 23 70.5 89.5t26.5 158.5v222q-1 79 -25 146t-72 94v50
q52 -14 83 -40t51 -62q20 -35 29.5 -79t12.5 -91v-213q0 -42 -5 -92t-22 -95q-18 -47 -51 -83.5t-98 -54.5zM503 226q-36 -23 -85 -23q-46 0 -80.5 18.5t-58.5 49.5t-36 71t-12 84q0 55 14 97.5t39 72.5q26 30 59.5 46t72.5 16q29 0 51 -8.5t38 -19.5q12 -9 16.5 -14.5
t10.5 -12.5v46h83v-599h-85v382q0 73 -33.5 114.5t-71.5 41.5q-50 0 -77 -47t-27 -115q1 -31 8 -58.5t19 -49.5q14 -21 32.5 -32.5t44.5 -11.5q42 0 78 30v-78z" />
    <glyph glyph-name="uni24AD" unicode="&#x24ad;" horiz-adv-x="940" 
d="M203 -6v-50q-66 18 -100 54.5t-50 83.5q-17 45 -21.5 95.5t-4.5 93.5v211q1 46 10 90.5t29 79.5q20 36 51.5 62t85.5 40v-50q-50 -27 -73.5 -94t-23.5 -146v-222q0 -92 24 -158.5t73 -89.5zM729 -56v50q47 23 70.5 89.5t26.5 158.5v222q-1 79 -25 146t-72 94v50
q52 -14 83 -40t51 -62q20 -35 29.5 -79t12.5 -91v-213q0 -42 -5 -92t-22 -95q-18 -47 -51 -83.5t-98 -54.5zM438 484q17 28 61.5 55t120.5 27v-84q-63 -1 -111.5 -25t-61.5 -80q-5 -17 -7 -35.5t-2 -40.5v-181h-84v436h84v-72z" />
    <glyph glyph-name="uni24AE" unicode="&#x24ae;" horiz-adv-x="940" 
d="M597 484q-24 9 -57 21.5t-73 12.5q-26 0 -48 -10t-22 -32q0 -16 7 -29t24 -22q17 -10 49.5 -21t64.5 -29q33 -17 57.5 -45t24.5 -70q0 -58 -39.5 -94t-142.5 -36q-43 0 -77 6t-56 17v90q15 -10 26.5 -16t26.5 -11q16 -6 35 -10.5t42 -4.5q38 0 68 11t30 41
q0 17 -10.5 29.5t-30.5 23.5q-19 11 -46.5 21.5t-59.5 25.5q-28 13 -53.5 40t-25.5 71q0 57 43.5 90t120.5 33q33 0 66.5 -5.5t55.5 -10.5v-87zM203 -6v-50q-66 18 -100 54.5t-50 83.5q-17 45 -21.5 95.5t-4.5 93.5v211q1 46 10 90.5t29 79.5q20 36 51.5 62t85.5 40v-50
q-50 -27 -73.5 -94t-23.5 -146v-222q0 -92 24 -158.5t73 -89.5zM729 -56v50q47 23 70.5 89.5t26.5 158.5v222q-1 79 -25 146t-72 94v50q52 -14 83 -40t51 -62q20 -35 29.5 -79t12.5 -91v-213q0 -42 -5 -92t-22 -95q-18 -47 -51 -83.5t-98 -54.5z" />
    <glyph glyph-name="uni24AF" unicode="&#x24af;" horiz-adv-x="940" 
d="M586 74q-26 -3 -41.5 -3.5t-30.5 -0.5q-67 0 -101 29t-34 80v263h-73v70h73v98l87 52v-150h122v-70h-122v-243q0 -37 17 -47.5t44 -10.5q14 0 26 1t33 9v-77zM203 -6v-50q-66 18 -100 54.5t-50 83.5q-17 45 -21.5 95.5t-4.5 93.5v211q1 46 10 90.5t29 79.5q20 36 51.5 62
t85.5 40v-50q-50 -27 -73.5 -94t-23.5 -146v-222q0 -92 24 -158.5t73 -89.5zM729 -56v50q47 23 70.5 89.5t26.5 158.5v222q-1 79 -25 146t-72 94v50q52 -14 83 -40t51 -62q20 -35 29.5 -79t12.5 -91v-213q0 -42 -5 -92t-22 -95q-18 -47 -51 -83.5t-98 -54.5z" />
    <glyph glyph-name="uni24B0" unicode="&#x24b0;" horiz-adv-x="940" 
d="M203 -6v-50q-66 18 -100 54.5t-50 83.5q-17 45 -21.5 95.5t-4.5 93.5v211q1 46 10 90.5t29 79.5q20 36 51.5 62t85.5 40v-50q-50 -27 -73.5 -94t-23.5 -146v-222q0 -92 24 -158.5t73 -89.5zM729 -56v50q47 23 70.5 89.5t26.5 158.5v222q-1 79 -25 146t-72 94v50
q52 -14 83 -40t51 -62q20 -35 29.5 -79t12.5 -91v-213q0 -42 -5 -92t-22 -95q-18 -47 -51 -83.5t-98 -54.5zM574 204q-9 -16 -45 -43.5t-112 -27.5q-28 0 -53 11t-45 30q-18 18 -29 43t-11 52v310h84v-273q0 -20 3.5 -37.5t12.5 -31.5q9 -13 25 -21t41 -8q45 0 76.5 35
t43.5 87q3 16 4.5 31t2.5 31v187h82v-437h-80v62z" />
    <glyph glyph-name="uni24B1" unicode="&#x24b1;" horiz-adv-x="940" 
d="M239 557h91l135 -316l122 316h86l-171 -437h-74zM203 -6v-50q-66 18 -100 54.5t-50 83.5q-17 45 -21.5 95.5t-4.5 93.5v211q1 46 10 90.5t29 79.5q20 36 51.5 62t85.5 40v-50q-50 -27 -73.5 -94t-23.5 -146v-222q0 -92 24 -158.5t73 -89.5zM729 -56v50q47 23 70.5 89.5
t26.5 158.5v222q-1 79 -25 146t-72 94v50q52 -14 83 -40t51 -62q20 -35 29.5 -79t12.5 -91v-213q0 -42 -5 -92t-22 -95q-18 -47 -51 -83.5t-98 -54.5z" />
    <glyph glyph-name="uni24B2" unicode="&#x24b2;" horiz-adv-x="940" 
d="M467 417l-99 -295h-82l-115 436h85l76 -298l99 298h69l101 -299l78 299h82l-111 -436h-84zM203 -6v-50q-66 18 -100 54.5t-50 83.5q-17 45 -21.5 95.5t-4.5 93.5v211q1 46 10 90.5t29 79.5q20 36 51.5 62t85.5 40v-50q-50 -27 -73.5 -94t-23.5 -146v-222q0 -92 24 -158.5
t73 -89.5zM729 -56v50q47 23 70.5 89.5t26.5 158.5v222q-1 79 -25 146t-72 94v50q52 -14 83 -40t51 -62q20 -35 29.5 -79t12.5 -91v-213q0 -42 -5 -92t-22 -95q-18 -47 -51 -83.5t-98 -54.5z" />
    <glyph glyph-name="uni24B3" unicode="&#x24b3;" horiz-adv-x="940" 
d="M415 370l-150 208h97l103 -138l102 138h99l-152 -208l167 -228h-99l-117 159l-120 -159h-98zM203 -6v-50q-66 18 -100 54.5t-50 83.5q-17 45 -21.5 95.5t-4.5 93.5v211q1 46 10 90.5t29 79.5q20 36 51.5 62t85.5 40v-50q-50 -27 -73.5 -94t-23.5 -146v-222
q0 -92 24 -158.5t73 -89.5zM729 -56v50q47 23 70.5 89.5t26.5 158.5v222q-1 79 -25 146t-72 94v50q52 -14 83 -40t51 -62q20 -35 29.5 -79t12.5 -91v-213q0 -42 -5 -92t-22 -95q-18 -47 -51 -83.5t-98 -54.5z" />
    <glyph glyph-name="uni24B4" unicode="&#x24b4;" horiz-adv-x="940" 
d="M474 323l116 305h86l-222 -599h-86l66 179l-179 420h88zM203 -6v-50q-66 18 -100 54.5t-50 83.5q-17 45 -21.5 95.5t-4.5 93.5v211q1 46 10 90.5t29 79.5q20 36 51.5 62t85.5 40v-50q-50 -27 -73.5 -94t-23.5 -146v-222q0 -92 24 -158.5t73 -89.5zM729 -56v50
q47 23 70.5 89.5t26.5 158.5v222q-1 79 -25 146t-72 94v50q52 -14 83 -40t51 -62q20 -35 29.5 -79t12.5 -91v-213q0 -42 -5 -92t-22 -95q-18 -47 -51 -83.5t-98 -54.5z" />
    <glyph glyph-name="uni24B5" unicode="&#x24b5;" horiz-adv-x="940" 
d="M287 205l241 303h-224v70h328v-65l-239 -301h250v-70h-356v63zM203 -6v-50q-66 18 -100 54.5t-50 83.5q-17 45 -21.5 95.5t-4.5 93.5v211q1 46 10 90.5t29 79.5q20 36 51.5 62t85.5 40v-50q-50 -27 -73.5 -94t-23.5 -146v-222q0 -92 24 -158.5t73 -89.5zM729 -56v50
q47 23 70.5 89.5t26.5 158.5v222q-1 79 -25 146t-72 94v50q52 -14 83 -40t51 -62q20 -35 29.5 -79t12.5 -91v-213q0 -42 -5 -92t-22 -95q-18 -47 -51 -83.5t-98 -54.5z" />
    <glyph glyph-name="uni24B6" unicode="&#x24b6;" horiz-adv-x="940" 
d="M375 320h177l-88 263zM464 807q89 0 170.5 -36.5t142.5 -98.5t97 -145.5t36 -177.5q0 -90 -36.5 -170.5t-98.5 -139.5q-62 -60 -146 -95t-178 -35q-91 0 -171.5 35t-140.5 97q-59 61 -94 143.5t-35 177.5q0 89 35 170t96 141q61 62 144 98t179 36zM285 63h-80l216 618h89
l211 -597l4 -10l5 5q54 52 84.5 121.5t30.5 149.5q0 82 -31 155.5t-83 127.5l-3 3q-53 51 -121.5 81.5t-143.5 30.5q-83 0 -153.5 -31t-124.5 -84q-52 -53 -81.5 -124t-29.5 -151q0 -83 29.5 -154.5t80.5 -123.5q52 -52 120.5 -82t147.5 -30q82 0 154 30q60 24 107 65h-74
l-64 189h-222z" />
    <glyph glyph-name="uni24B7" unicode="&#x24b7;" horiz-adv-x="940" 
d="M287 662h191q34 0 67.5 -8t60.5 -27t44 -48.5t19 -72.5q0 -55 -28.5 -86.5t-55.5 -45.5q-9 -4 -16 -5q10 -2 29.5 -7.5t42.5 -21.5q22 -18 38 -46.5t16 -74.5q0 -70 -39.5 -110.5t-96.5 -56.5q-19 -4 -41.5 -6t-40.5 -2h-190v618zM369 399h77h18.5t25.5 1q14 0 31 5.5
t32 17.5q14 12 24.5 31t10.5 47q0 43 -27 64t-63 27q-9 1 -21 1.5t-21 0.5h-87v-195zM369 112h137q14 2 32.5 7.5t34.5 18.5q15 11 26 31.5t13 52.5q0 37 -20 64.5t-63 40.5q-11 3 -27.5 5t-27.5 2h-105v-222zM464 807q89 0 170.5 -36.5t142.5 -98.5t97 -145.5t36 -177.5
q0 -90 -36.5 -170.5t-98.5 -139.5q-62 -60 -146 -95t-178 -35q-91 0 -171.5 35t-140.5 97q-59 61 -94 143.5t-35 177.5q0 89 35 170t96 141q61 62 144 98t179 36zM463 748q-83 0 -153.5 -31t-124.5 -84q-52 -53 -81.5 -124t-29.5 -151q0 -83 29.5 -154.5t80.5 -123.5
q52 -52 120.5 -82t147.5 -30q82 0 153.5 29.5t124.5 81.5q54 52 84.5 121.5t30.5 149.5q0 82 -31 155.5t-83 127.5l-3 3q-53 51 -121.5 81.5t-143.5 30.5z" />
    <glyph glyph-name="uni24B8" unicode="&#x24b8;" horiz-adv-x="940" 
d="M655 82q-12 -5 -26.5 -11.5t-35.5 -12.5q-23 -6 -53.5 -10t-70.5 -4q-74 0 -127.5 29t-87.5 76q-35 47 -51 105.5t-16 117.5t17 114t52 99q35 43 87 69t123 26q65 0 117.5 -29t78.5 -80q8 -16 11.5 -37t6.5 -42h-89q0 30 -8 49.5t-22 36.5q-15 17 -43 25.5t-52 8.5
q-40 0 -74.5 -16.5t-60.5 -46.5q-27 -31 -42 -76.5t-15 -102.5q0 -32 8 -76t30 -85q24 -40 65 -68.5t109 -28.5q42 -1 78 7.5t56 22.5q2 1 5.5 4t7.5 5q4 3 6.5 5t15.5 15v-89zM464 807q89 0 170.5 -36.5t142.5 -98.5t97 -145.5t36 -177.5q0 -90 -36.5 -170.5t-98.5 -139.5
q-62 -60 -146 -95t-178 -35q-91 0 -171.5 35t-140.5 97q-59 61 -94 143.5t-35 177.5q0 89 35 170t96 141q61 62 144 98t179 36zM463 748q-83 0 -153.5 -31t-124.5 -84q-52 -53 -81.5 -124t-29.5 -151q0 -83 29.5 -154.5t80.5 -123.5q52 -52 120.5 -82t147.5 -30
q82 0 153.5 29.5t124.5 81.5q54 52 84.5 121.5t30.5 149.5q0 82 -31 155.5t-83 127.5l-3 3q-53 51 -121.5 81.5t-143.5 30.5z" />
    <glyph glyph-name="uni24B9" unicode="&#x24b9;" horiz-adv-x="940" 
d="M290 662h170q34 0 67.5 -8t57.5 -17q70 -30 116.5 -100t46.5 -185q0 -66 -16.5 -115.5t-43.5 -86.5q-27 -36 -62.5 -59.5t-74.5 -33.5q-24 -8 -55.5 -10.5t-59.5 -2.5h-146v618zM373 113h66q20 0 46 1t42 7q23 6 47 22t45 45q19 27 32.5 67.5t14.5 95.5q-1 57 -14 99.5
t-33 69.5q-21 29 -46.5 44t-50.5 21q-17 3 -43.5 5.5t-46.5 2.5h-59v-480zM464 807q89 0 170.5 -36.5t142.5 -98.5t97 -145.5t36 -177.5q0 -90 -36.5 -170.5t-98.5 -139.5q-62 -60 -146 -95t-178 -35q-91 0 -171.5 35t-140.5 97q-59 61 -94 143.5t-35 177.5q0 89 35 170
t96 141q61 62 144 98t179 36zM463 748q-83 0 -153.5 -31t-124.5 -84q-52 -53 -81.5 -124t-29.5 -151q0 -83 29.5 -154.5t80.5 -123.5q52 -52 120.5 -82t147.5 -30q82 0 153.5 29.5t124.5 81.5q54 52 84.5 121.5t30.5 149.5q0 82 -31 155.5t-83 127.5l-3 3
q-53 51 -121.5 81.5t-143.5 30.5z" />
    <glyph glyph-name="uni24BA" unicode="&#x24ba;" horiz-adv-x="940" 
d="M283 662h340v-69h-257v-192h247v-67h-247v-221h265v-69h-348v618zM464 807q89 0 170.5 -36.5t142.5 -98.5t97 -145.5t36 -177.5q0 -90 -36.5 -170.5t-98.5 -139.5q-62 -60 -146 -95t-178 -35q-91 0 -171.5 35t-140.5 97q-59 61 -94 143.5t-35 177.5q0 89 35 170t96 141
q61 62 144 98t179 36zM463 748q-83 0 -153.5 -31t-124.5 -84q-52 -53 -81.5 -124t-29.5 -151q0 -83 29.5 -154.5t80.5 -123.5q52 -52 120.5 -82t147.5 -30q82 0 153.5 29.5t124.5 81.5q54 52 84.5 121.5t30.5 149.5q0 82 -31 155.5t-83 127.5l-3 3q-53 51 -121.5 81.5
t-143.5 30.5z" />
    <glyph glyph-name="uni24BB" unicode="&#x24bb;" horiz-adv-x="940" 
d="M312 652h340v-69h-258v-192h248v-67h-248v-290h-82v618zM464 807q89 0 170.5 -36.5t142.5 -98.5t97 -145.5t36 -177.5q0 -90 -36.5 -170.5t-98.5 -139.5q-62 -60 -146 -95t-178 -35q-91 0 -171.5 35t-140.5 97q-59 61 -94 143.5t-35 177.5q0 89 35 170t96 141
q61 62 144 98t179 36zM463 748q-83 0 -153.5 -31t-124.5 -84q-52 -53 -81.5 -124t-29.5 -151q0 -83 29.5 -154.5t80.5 -123.5q52 -52 120.5 -82t147.5 -30q82 0 153.5 29.5t124.5 81.5q54 52 84.5 121.5t30.5 149.5q0 82 -31 155.5t-83 127.5l-3 3q-53 51 -121.5 81.5
t-143.5 30.5z" />
    <glyph glyph-name="uni24BC" unicode="&#x24bc;" horiz-adv-x="940" 
d="M464 807q89 0 170.5 -36.5t142.5 -98.5t97 -145.5t36 -177.5q0 -90 -36.5 -170.5t-98.5 -139.5q-62 -60 -146 -95t-178 -35q-91 0 -171.5 35t-140.5 97q-59 61 -94 143.5t-35 177.5q0 89 35 170t96 141q61 62 144 98t179 36zM673 78q-12 -5 -29 -12.5t-41 -13.5
q-26 -7 -59 -12t-73 -5q-74 0 -127.5 29t-87.5 76q-35 47 -51 105.5t-16 117.5t17 114t52 99q35 43 87 69t123 26q65 0 117.5 -29t78.5 -80q8 -16 11.5 -37t6.5 -42h-92q0 30 -7.5 49.5t-21.5 36.5q-15 17 -42 24.5t-52 8.5q-39 0 -73.5 -16.5t-59.5 -46.5
q-26 -31 -40.5 -76.5t-14.5 -102.5q0 -32 7.5 -75.5t29.5 -83.5q23 -40 63.5 -68.5t108.5 -29.5q29 0 57 4.5t46 11.5v187h-148v69h230v-297zM463 748q-83 0 -153.5 -31t-124.5 -84q-52 -53 -81.5 -124t-29.5 -151q0 -83 29.5 -154.5t80.5 -123.5q52 -52 120.5 -82
t147.5 -30q82 0 153.5 29.5t124.5 81.5q54 52 84.5 121.5t30.5 149.5q0 82 -31 155.5t-83 127.5l-3 3q-53 51 -121.5 81.5t-143.5 30.5z" />
    <glyph glyph-name="uni24BD" unicode="&#x24bd;" horiz-adv-x="940" 
d="M247 662h84v-264h259v264h84v-618h-84v287h-259v-287h-84v618zM464 807q89 0 170.5 -36.5t142.5 -98.5t97 -145.5t36 -177.5q0 -90 -36.5 -170.5t-98.5 -139.5q-62 -60 -146 -95t-178 -35q-91 0 -171.5 35t-140.5 97q-59 61 -94 143.5t-35 177.5q0 89 35 170t96 141
q61 62 144 98t179 36zM463 748q-83 0 -153.5 -31t-124.5 -84q-52 -53 -81.5 -124t-29.5 -151q0 -83 29.5 -154.5t80.5 -123.5q52 -52 120.5 -82t147.5 -30q82 0 153.5 29.5t124.5 81.5q54 52 84.5 121.5t30.5 149.5q0 82 -31 155.5t-83 127.5l-3 3q-53 51 -121.5 81.5
t-143.5 30.5z" />
    </font>
</defs>
</svg>
